Ссылка на приватное зеркало нашего сайта всего за 1$. Внимание количество ограничено!!!

2 сезон

iTunes

1 сезон

1

iTunes

iTunes

iTunes

1 сезон

RePack

30

ИГРА 18+

pack

ВАЖНО

!!Акция!!

Alien_RageХит недели

RePack

MK11
pack

Забери бонус

RePack

jed

!!Акция!!

Alien_Rage

RePack

fifa19

RePack

Assassins Creed: Odyssey

RePack

NEED FOR SPEED™ PAYBACK

4 сезон

9 сезон

Бесстыжие 9 сезон

Все сериалы

все сериалы на PB.wtf

RePack

FAR CRY 5
  

Вокруг света за 80 дней / Around the World in 80 Days (Фрэнк Корачи) [2004, боевик, комедия, приключения, BDRip 720p by msltel] DUB, DVO pb.wtf

Вокруг света за 80 дней через торрент pb.wtf

Размер: 4.88 GB | Добавлен: 4 года 2 мес. назад | Торрент скачан:231 раз
Скачать  

04-08-2016 12:56 Вокруг света за 80 дней Скачать торрент  

Название: Вокруг света за 80 дней
Оригинальное название: Around the World in 80 Days
Год выпуска: 2004
Страна: США, Германия, Ирландия, Великобритания
Жанр: боевик, комедия, приключения
Продолжительность: 02:00:16
Перевод: дублированный, профессиональный двухголосый

Режиссёр: Фрэнк Корачи

В ролях: Джеки Чан, Стив Кугэн, Роберт Файф, Джим Бродбент, Иэн МакНис, Дэвид Райалл, Роджер Хэммонд, Адам Годли, Карен Мок, Ховард Купер, Дэниэл Хинчклифф, Вольфрам Тюфель, Том Штраусс, Кит Уэст, Юэн Бремнер, Патрик Пару, Сесиль Де Франс, Перри Блейк, Мэйси Грэй

Описание: Эксцентричный лондонский изобретатель Филеас Фогг раскрыл тайны полётов, электричества и многие другие, но общество не принимает его, считая сумасшедшим. Фоггу очень хочется, чтобы к нему относились серьеёно, и он заключает необычное пари с лордом Келвином, главой Королевской академии наук: он берётся совершить путешествие вокруг земного шара не более чем за 80 дней! Вместе со своим лакеем Паспарту и жаждущей острых ощущений французской художницей Моник Фогг пускается в безумную, захватывающую кругосветную гонку по суше, морю и воздуху. Во время головокружительного путешествия наши герои попадают в самые экзотические уголки планеты. В пути их ждут многочисленные приключения и препятствия... Фильм снят по мотивам романа Жюля Верна «Вокруг света за 80 дней».



Качество: BDRip 720p Сравнение с исходником
Формат: MKV
Видео: MPEG-4 AVC, 4527 Kбит/с, 1280x546, 23,976 кадра/с
Аудио 1: русский, AC3, 384 kbps, 6 ch, 48 kHz [дублированный ,R5, Нева фильм]
Аудио 2: русский, AC3, 448 kbps, 6 ch, 48 kHz [профессиональный двухголосый, Tycoon]
Аудио 3: английский, AC3, 448 kbps, 6 ch, 48 kHz [оригинал]
Субтитры 1: русские
Субтитры 2: английские
Общее
Уникальный идентификатор : 250586862131202916666546582095605118572 (0xBC85462E5B6585CA90DF18DA71C9B66C)
Полное имя : D:\Video\Вокруг света за 80 дней.2004.BDRip.720p.mkv
Формат : Matroska
Версия формата : Version 4 / Version 2
Размер файла : 4,88 Гбайт
Продолжительность : 2 ч. 0 м.
Общий поток : 5810 Кбит/сек
Дата кодирования : UTC 2016-08-04 03:33:45
Программа кодирования : mkvmerge v8.2.0 ('World of Adventure') 64bit
Библиотека кодирования : libebml v1.3.1 + libmatroska v1.4.2

Видео
Идентификатор : 1
Формат : AVC
Формат/Информация : Advanced Video Codec
Профиль формата : High@L4.1
Параметр CABAC формата : Да
Параметр ReFrames формата : 9 кадров
Идентификатор кодека : V_MPEG4/ISO/AVC
Продолжительность : 2 ч. 0 м.
Битрейт : 4527 Кбит/сек
Ширина : 1280 пикселей
Высота : 546 пикселей
Соотношение сторон : 2,35:1
Режим частоты кадров : Постоянный
Частота кадров : 23,976 (24000/1001) кадра/сек
Цветовое пространство : YUV
Субдискретизация насыщенности : 4:2:0
Битовая глубина : 8 бит
Тип развёртки : Прогрессивная
Бит/(Пиксели*Кадры) : 0.270
Размер потока : 3,80 Гбайт (78%)
Библиотека кодирования : x264 core 146 r2538 121396c
Настройки программы : cabac=1 / ref=9 / deblock=1:-1:-1 / analyse=0x3:0x113 / me=umh / subme=10 / psy=1 / psy_rd=1.00:0.15 / mixed_ref=1 / me_range=32 / chroma_me=1 / trellis=2 / 8x8dct=1 / cqm=0 / deadzone=21,11 / fast_pskip=1 / chroma_qp_offset=-3 / threads=6 / lookahead_threads=1 / sliced_threads=0 / nr=0 / decimate=1 / interlaced=0 / bluray_compat=0 / constrained_intra=0 / bframes=9 / b_pyramid=2 / b_adapt=2 / b_bias=0 / direct=1 / weightb=1 / open_gop=0 / weightp=2 / keyint=230 / keyint_min=23 / scenecut=40 / intra_refresh=0 / rc_lookahead=40 / rc=crf / mbtree=0 / crf=19.0 / qcomp=0.60 / qpmin=0 / qpmax=69 / qpstep=4 / vbv_maxrate=40000 / vbv_bufsize=50000 / crf_max=0.0 / nal_hrd=none / filler=0 / ip_ratio=1.40 / pb_ratio=1.30 / aq=1:1.00
Язык : English
Default : Да
Forced : Нет

Аудио #1
Идентификатор : 2
Формат : AC-3
Формат/Информация : Audio Coding 3
Расширение режима : CM (complete main)
Параметр Endianness формата : Big
Идентификатор кодека : A_AC3
Продолжительность : 2 ч. 0 м.
Вид битрейта : Постоянный
Битрейт : 384 Кбит/сек
Каналы : 6 каналов
Расположение каналов : Front: L C R, Side: L R, LFE
Частота : 48,0 КГц
Частота кадров : 31,250 кадров/сек (1536 spf)
Метод сжатия : С потерями
Размер потока : 330 Мбайт (7%)
Заголовок : DUB (R5, Нева фильм)
Язык : Russian
Default : Да
Forced : Нет

Аудио #2
Идентификатор : 3
Формат : AC-3
Формат/Информация : Audio Coding 3
Расширение режима : CM (complete main)
Параметр Endianness формата : Big
Идентификатор кодека : A_AC3
Продолжительность : 2 ч. 0 м.
Вид битрейта : Постоянный
Битрейт : 448 Кбит/сек
Каналы : 6 каналов
Расположение каналов : Front: L C R, Side: L R, LFE
Частота : 48,0 КГц
Частота кадров : 31,250 кадров/сек (1536 spf)
Метод сжатия : С потерями
Размер потока : 385 Мбайт (8%)
Заголовок : DVO (Tycoon)
Язык : Russian
Default : Нет
Forced : Нет

Аудио #3
Идентификатор : 4
Формат : AC-3
Формат/Информация : Audio Coding 3
Расширение режима : CM (complete main)
Параметр Endianness формата : Big
Идентификатор кодека : A_AC3
Продолжительность : 2 ч. 0 м.
Вид битрейта : Постоянный
Битрейт : 448 Кбит/сек
Каналы : 6 каналов
Расположение каналов : Front: L C R, Side: L R, LFE
Частота : 48,0 КГц
Частота кадров : 31,250 кадров/сек (1536 spf)
Метод сжатия : С потерями
Размер потока : 385 Мбайт (8%)
Заголовок : original
Язык : English
Default : Нет
Forced : Нет

Текст #1
Идентификатор : 5
Формат : UTF-8
Идентификатор кодека : S_TEXT/UTF8
Идентификатор кодека/Информация : UTF-8 Plain Text
Продолжительность : 1 ч. 52 м.
Битрейт : 87 бит/сек
Count of elements : 1155
Размер потока : 71,8 Кбайт (0%)
Заголовок : русские
Язык : Russian
Default : Нет
Forced : Нет

Текст #2
Идентификатор : 6
Формат : UTF-8
Идентификатор кодека : S_TEXT/UTF8
Идентификатор кодека/Информация : UTF-8 Plain Text
Продолжительность : 1 ч. 58 м.
Битрейт : 53 бит/сек
Count of elements : 1424
Размер потока : 46,3 Кбайт (0%)
Заголовок : английские
Язык : English
Default : Нет
Forced : Нет
pb.wtf



Скачать Вокруг света за 80 дней через торрент http://s020.radikal.ru/i703/1608/ff/c64852d88906.jpg Скачать фильм Вокруг света за 80 дней через торрент бесплантно в хорошем качестве Описание: Эксцентричный лондонский изобретатель Филеас Фогг раскрыл тайны полётов, электричества и многие другие, но общество не принимает ... 10 10 12
Info! Золотая раздача, скачанное не засчитывается.
Торрент: Зарегистрирован [2016-08-04 12:56] · скачан: 231 раз
Статус: √ проверено
Размер: 4.88 GB
Как cкачать? Как скачать Вокруг света за 80 дней через торрент | qTorrent

% Раздел Тема Автор DL S | L
Фильмы до 2000 г. [ 4.32 GB ] Вокруг света в 80 дней / Вокруг света за 80 дней / Around the World in Eighty Days [1956 экранизация Screener > DVD][Советская прокатная копия] killermax2013 Скачать
1 | 0
Фильмы [HD 720p, 1080p] (Хороший звук DUB, MVO) [ 15.3 GB ] Вокруг света за 80 дней / Around the World in 80 Days [2004 BDRip 1080p by msltel] DUB DVO msltel Скачать
1 | 0
Мультсериалы [ 4.35 GB ] Вокруг света за 80 дней / Around the world in eighty days / Серии: 1-16 из 16 [1972 мультфильм DVDRip-AVC] 3x killermax2013 Скачать
1 | 0
Фильмы 2001-2005 [ 1.45 GB ] Вокруг света за 80 дней / Around the World in 80 Days [2004 HDRip DUB лицензия] ALIK1989 Скачать
1 | 0

28-11-2019 20:33  

Отключить всю рекламу на сайте

04-08-2016 14:13 Вокруг света за 80 дней Скачать торрент  

классный фильмpb.wtf



10-08-2016 07:40 Вокруг света за 80 дней Скачать торрент  

Отличный фильм всем советую)pb.wtf



    Дорогой пользователь! Огромная просьба, поблагодарите релизера, оцените раздачу и оставьте свои комментарий, если Вы скачали Вокруг света за 80 дней через торрент бесплатно! Внесите свою лепту в развитие PiratBit!
    Комментировать посты могут только пользователи прошедшие не сложную регистрацию
    Показать сообщения:    

    Вокруг света за 80 дней через торрент
    Скачать бесплатно Вокруг света за 80 дней
    Вокруг света за 80 дней скачать торрент
    Вокруг света за 80 дней смотреть онлайн
    Cкачать фильм Вокруг света за 80 дней бесплатно
    Вокруг света за 80 дней скачать торрент в хорошем качестве
    Вокруг света за 80 дней смотреть онлайн бесплатно в хорошем качестве


    Вы не можете начинать темы
    Вы не можете отвечать на сообщения
    Вы не можете редактировать свои сообщения
    Вы не можете удалять свои сообщения
    Вы не можете голосовать в опросах
    Вы не можете прикреплять файлы к сообщениям
    Вы можете скачивать файлы