новый адрес
Ссылка на приватное зеркало всего за 1$. Внимание количество ограничено!!!

iTunes

1+1

iTunes

мы

WEB-DL

1

iTunes

Чернобыль

iTunes

Ральф против интернета

Лицензия

ПШазам

Лицензия

Оно 2

Лицензия

30
pack

Вам бонус

ВАЖНО

!!Акция!!

Alien_RageХит недели

RePack

Resident Evil 21

ИГРА 18+

pack

RePack

jed

!!Акция!!

Alien_Rage

RePack

fifa19

RePack

Assassins Creed: Odyssey

RePack

NEED FOR SPEED™ PAYBACK

3 сезон

9 сезон

Бесстыжие 9 сезон

Все сериалы

все сериалы на PB.wtf

RePack

FAR CRY 5
Ребята, катастрофически не хватает 1900р. для оплаты серверов за Октябрь (всвязи с блокировками трафик упал в 3 раза), 1-2р., выручайте.
  

Отелло (Сергей Юткевич) [1955 , СССР, драма, мелодрама, DVDRip от AVP Studio] pb.wtf

Отелло через торрент pb.wtf

Размер: 1.46 GB | Добавлен: 3 года 4 мес. назад | Торрент скачан:15 раз
Скачать  

05-08-2016 19:07 Отелло Скачать торрент  

Отелло
Страна: СССР
Производство: Мосфильм

Жанр: драма, мелодрама
Год выпуска: 1955
Продолжительность: 01:43:06

Перевод: Не требуется
Cубтитры: нет
Оригинальная аудиодорожка: русский

Режиссер: Сергей Юткевич

В ролях:
Сергей Бондарчук, Андрей Попов, Ирина Скобцева, Владимир Сошальский, Евгений Весник, Антонина Максимова, Евгений Тетерин, Михаил Трояновский, Алексей Кельберер, Николай Бриллинг...
Полный список актёров

Описание:
Экранизация трагедии У. Шекспира. Дочь венецианского купца Дездемона тайно венчается с генералом венецианской республики мавром Отелло. Яго, слепо ненавидящий Отелло, намерен разрушить его счастье и убеждает генерала в неверности жены. Сжигаемый ревностью Отелло душит Дездемону. А затем, убедившись, что стал жертвою интриги, закалывает себя кинжалом.

Источник: DVD5 R5
Качество видео: DVDRip
Формат видео: AVI

Видео: 704x528 (4:3), 25 fps, XviD ~ 1568 kbps avg, 0.169 bit/pixel
Аудио: 48 kHz, Dolby Digital AC3 5.1, 448 kbps

Раздача от:
Общее
Полное имя : Otello.1955.DVDRip_[New-team]_by_AVP_Studio.avi
Формат : AVI
Формат/Информация : Audio Video Interleave
Размер файла : 1,46 Гбайт
Продолжительность : 1 ч. 43 м.
Общий поток : 2026 Кбит/сек
Программа кодирования : VirtualDubMod 1.5.10.3 | www.virtualdub-fr.org || (build 2550/release)
Библиотека кодирования : VirtualDubMod build 2550/release

Видео
Идентификатор : 0
Формат : MPEG-4 Visual
Профиль формата : Advanced Simple@L5
Параметр BVOP формата : 1
Параметр QPel формата : Нет
Параметр GMC формата : Без точки перехода
Параметр матрицы формата : Выборочная
Идентификатор кодека : XVID
Идентификатор кодека/Подсказка : XviD
Продолжительность : 1 ч. 43 м.
Битрейт : 1568 Кбит/сек
Ширина : 704 пикселя
Высота : 528 пикселей
Соотношение сторон : 4:3
Частота кадров : 25,000 кадров/сек
Цветовое пространство : YUV
Субдискретизация насыщенности : 4:2:0
Битовая глубина : 8 бит
Тип развёртки : Прогрессивная
Метод сжатия : С потерями
Бит/(Пиксели*Кадры) : 0.169
Размер потока : 1,13 Гбайт (77%)
Библиотека кодирования : XviD 1.2.1 (UTC 2008-12-04)

Аудио
Идентификатор : 1
Формат : AC-3
Формат/Информация : Audio Coding 3
Расширение режима : CM (complete main)
Параметр Endianness формата : Big
Идентификатор кодека : 2000
Продолжительность : 1 ч. 43 м.
Вид битрейта : Постоянный
Битрейт : 448 Кбит/сек
Каналы : 6 каналов
Расположение каналов : Front: L C R, Side: L R, LFE
Частота : 48,0 КГц
Частота кадров : 31,250 кадров/сек (1536 spf)
Метод сжатия : С потерями
Размер потока : 330 Мбайт (22%)
Выравнивание : Разделение по промежуткам
Продолжительность промежутка : 40 мс. (1,00 видеокадр)
Время предзагрузки промежутка : 500 мс
pb.wtf



Скачать Отелло через торрент http://s020.radikal.ru/i716/1605/51/1bd2f07198e9.png Скачать фильм Отелло через торрент бесплантно в хорошем качестве Описание:Экранизация трагедии У. Шекспира. Дочь венецианского купца Дездемона тайно венчается с генералом венецианской республики мавром ... 5 10 1
Info! Золотая раздача, скачанное не засчитывается.
Торрент: Зарегистрирован [2016-08-05 19:07] · скачан: 15 раз
Статус: √ проверено
Размер: 1.46 GB
Как cкачать? Как скачать Отелло через торрент | qTorrent

% Раздел Тема Автор DL S | L
Кино СССР [ 1.46 GB ] Отелло [1955 СССР DVDRip-AVC от AVP Studio] AVP Studio Скачать
1 | 0
Кино СССР [ 745 MB ] Отелло [1955 СССР DVDRip от AVP Studio] AVP Studio Скачать
1 | 0
Детективы, Боевики, Триллеры [ 451 MB ] Галина Романова - Принцип Отелло [Татьяна Ненарокомова 2013 96 kbps MP3] Бумер Скачать
1 | 0
Научно-популярные фильмы [ 725 MB ] Вторая Мировая война в 3D / WWII in 3D [2011 документальный исторический HDRip VO] markfiter Скачать
1 | 0

28-11-2019 20:33  

Отключить всю рекламу на сайте

    Дорогой пользователь! Огромная просьба, поблагодарите релизера, оцените раздачу и оставьте свои комментарий, если Вы скачали Отелло через торрент бесплатно! Внесите свою лепту в развитие PiratBit!
    Комментировать посты могут только пользователи прошедшие не сложную регистрацию
    Показать сообщения:    

    Отелло через торрент
    Скачать бесплатно Отелло
    Отелло скачать торрент
    Отелло смотреть онлайн
    Cкачать фильм Отелло бесплатно
    Отелло скачать торрент в хорошем качестве
    Отелло смотреть онлайн бесплатно в хорошем качестве


    Вы не можете начинать темы
    Вы не можете отвечать на сообщения
    Вы не можете редактировать свои сообщения
    Вы не можете удалять свои сообщения
    Вы не можете голосовать в опросах
    Вы не можете прикреплять файлы к сообщениям
    Вы можете скачивать файлы