Ссылка на приватное зеркало нашего сайта всего за 1$. Внимание количество ограничено!!!

2 сезон

iTunes

1 сезон

1

2 сезон

2 сезон

iTunes

1 сезон

RePack

30

Новинка

ВАЖНО

ИГРА 18+

pack

RePack

MK11
pack

Забери бонус

RePack

jed

!!Акция!!

Alien_Rage

RePack

fifa19

RePack

Assassins Creed: Odyssey

RePack

NEED FOR SPEED™ PAYBACK

4 сезон

9 сезон

Бесстыжие 9 сезон

Все сериалы

все сериалы на PB.wtf

RePack

FAR CRY 5
  

Мертвое лето / Беспощадное лето / Dead of Summer / Сезон: 1 / Серии 1-10 из 10 (Норман Бакли, Мик Гэррис, Адам Хоровиц) [2016 г., США, драма, ужасы, мистика, WEB-DLRip-AVC] MVO [BaibaKo] pb.wtf

Мертвое лето через торрент pb.wtf

Размер: 8.01 GB | Добавлен: 4 года назад | Торрент скачан:25 раз
Скачать  

06-08-2016 01:45 Мертвое лето Скачать торрент  

Мертвое лето / Беспощадное лето / Dead of Summer


  • Год выпуска: 2016
  • Страна: США
  • Жанр: драма, ужасы, мистика
  • Продолжительность: 00:42:21 (Серия)
  • Перевод: Профессиональный многоголосый закадровый [BaibaKo]
  • Режиссер: Норман Бакли, Мик Гэррис, Адам Хоровиц
  • В ролях: Эмбер Кони, Кэйтлин Майкл Райли, Дженна Берман, Захари Гордан, Мишелль Мартин, Чарльз Межер, Даррен Мур, Тони Тодд, Альберто Фрезза и др.


  • В конце 1980-х, когда школы пустуют летом, открывается сезон в идеальном на первый взгляд летнем лагере Стиллуотер на Среднем Западе. Это время для первой любви, первого поцелуя… и первого убийства. Темная, древняя мифология Стиллуотера просыпается, и то, что должно было стать летним развлечением, вскоре превращается в незабываемые ужасы и зло на каждом шагу.
  • Рейтинг:



  • Качество: WEB-DLRip-AVC
  • Формат: :MPEG-4
  • Видео кодек: AVC
  • Аудио кодек: AC3
  • Видео: 2000 Кбит/сек, 1024*576 (16:9), в 23,976 (24000/1001) кадра/сек, AVC
  • Аудио №1: Русский 384 Кбит/сек, 48,0 КГц, 16 бит, 6 каналов, AC-3 |[BaibaKo]|
  • Аудио №2: Английский 384 Кбит/сек, 48,0 КГц, 16 бит, 6 каналов, AC-3

    Внимание! Раздача ведётся путём добавления новых серий; при каждом добавлении создаётся новый торрент. Чтобы начать докачку новой серии, пользователям необходимо сделать следующее:
    (1) остановить скачивание,
    (2) удалить старый торрент у себя из клиента (старые серии удалять не надо),
    (3) скачать новый торрент и запустить его у себя в клиенте вместо старого, при этом указать клиенту путь в старую папку куда и должно происходить скачивание новых серий.
    Ваш клиент при этом должен произвести хеширование (проверку) старой папки (если не производит сам - помогите ему сделать это), и будет докачивать только те серии которых у вас ещё нет. Старые серии при этом не удаляются, а продолжают раздаваться!
    Eсли вы уже удалили старые серии, то предотвратить повторную закачку старых серий можно, отжав галочку в соответствующих местах при запуске нового торрента. По возможности, желательно не удалять старые серии как можно дольше чтобы релизёр не столько продолжал раздавать старые серии, а смог сконцентрироваться на новых.


    Общее
    Полное имя : H:\Беспощадное лето (Dead of Summer)\Dead.of.Summer.s01e02.WEB-DLRip-AVC.Rus.Eng.BaibaKo.tv.mp4
    Формат : MPEG-4
    Профиль формата : Base Media
    Идентификатор кодека : isom (isom/iso2/avc1/mp41)
    Размер файла : 840 Мбайт
    Продолжительность : 42 м.
    Общий поток : 2773 Кбит/сек
    Программа кодирования : XviD4PSP 7.0.281 DAILY
    HDVideo : Yes
    encoding_info : MATROSKA / WEBM > MP4 Произвольный / H264 > X264 CBR 2000kbps HQ / AC3 > AC3 CBR 384kbps / AC3 > AC3 CBR 384kbps

    Видео
    Идентификатор : 1
    Формат : AVC
    Формат/Информация : Advanced Video Codec
    Профиль формата : High@L4.1
    Параметр CABAC формата : Да
    Параметр ReFrames формата : 4 кадра
    Идентификатор кодека : avc1
    Идентификатор кодека/Информация : Advanced Video Coding
    Продолжительность : 42 м.
    Битрейт : 2000 Кбит/сек
    Ширина : 1024 пикселя
    Высота : 576 пикселей
    Соотношение сторон : 16:9
    Режим частоты кадров : Постоянный
    Частота кадров : 23,976 (24000/1001) кадра/сек
    Цветовое пространство : YUV
    Субдискретизация насыщенности : 4:2:0
    Битовая глубина : 8 бит
    Тип развёртки : Прогрессивная
    Бит/(Пиксели*Кадры) : 0.141
    Размер потока : 606 Мбайт (72%)
    Библиотека кодирования : x264 core 148 r2705M 3f5ed56
    Настройки программы : cabac=1 / ref=3 / deblock=1:-1:-1 / analyse=0x3:0x133 / me=hex / subme=7 / psy=1 / psy_rd=1.00:0.20 / mixed_ref=1 / me_range=16 / chroma_me=1 / trellis=1 / 8x8dct=1 / cqm=0 / deadzone=21,11 / fast_pskip=1 / chroma_qp_offset=-3 / threads=5 / lookahead_threads=1 / sliced_threads=0 / nr=0 / decimate=1 / interlaced=0 / bluray_compat=0 / constrained_intra=0 / bframes=3 / b_pyramid=2 / b_adapt=2 / b_bias=0 / direct=3 / weightb=1 / open_gop=0 / weightp=2 / keyint=230 / keyint_min=23 / scenecut=40 / intra_refresh=0 / rc_lookahead=40 / rc=cbr / mbtree=1 / bitrate=2000 / ratetol=1.0 / qcomp=0.60 / qpmin=0 / qpmax=69 / qpstep=4 / vbv_maxrate=2000 / vbv_bufsize=30000 / nal_hrd=none / filler=0 / ip_ratio=1.40 / aq=1:1.00

    Аудио #1
    Идентификатор : 2
    Формат : AC-3
    Формат/Информация : Audio Coding 3
    Расширение режима : CM (complete main)
    Параметр Endianness формата : Big
    Идентификатор кодека : ac-3
    Продолжительность : 42 м.
    Вид битрейта : Постоянный
    Битрейт : 384 Кбит/сек
    Каналы : 6 каналов
    Расположение каналов : Front: L C R, Side: L R, LFE
    Частота : 48,0 КГц
    Частота кадров : 31,250 кадров/сек (1536 spf)
    Битовая глубина : 16 бит
    Метод сжатия : С потерями
    Размер потока : 116 Мбайт (14%)
    Язык : Russian
    Default : Да
    Alternate group : 1

    Аудио #2
    Идентификатор : 3
    Формат : AC-3
    Формат/Информация : Audio Coding 3
    Расширение режима : CM (complete main)
    Параметр Endianness формата : Big
    Идентификатор кодека : ac-3
    Продолжительность : 42 м.
    Вид битрейта : Постоянный
    Битрейт : 384 Кбит/сек
    Каналы : 6 каналов
    Расположение каналов : Front: L C R, Side: L R, LFE
    Частота : 48,0 КГц
    Частота кадров : 31,250 кадров/сек (1536 spf)
    Битовая глубина : 16 бит
    Метод сжатия : С потерями
    Размер потока : 116 Мбайт (14%)
    Язык : English
    Default : Нет
    Alternate group : 1








    Скриншоты:
    скриншот   скриншот   скриншот   скриншот   скриншот   скриншот   скриншот  
    скриншот  

    Раздача ведётся путём добавления новых серий. Добавлена 10 серия (21.11.2016).Просьба перекачать торрент файл.

    pb.wtf



  • Скачать Мертвое лето через торрент http://pic1.kartinco.top/images/10/u3z6z.jpg Скачать фильм Мертвое лето через торрент бесплантно в хорошем качестве qw.png В конце 1980-х, когда школы пустуют летом, открывается сезон в идеальном на первый взгляд летнем лагере Стиллуотер на Среднем ... 7.4 10 7
    Info! Золотая раздача, скачанное не засчитывается.
    Торрент: Зарегистрирован [2016-11-21 11:42] · скачан: 25 раз
    Статус: √ проверено
    Размер: 8.01 GB
    Как cкачать? Как скачать Мертвое лето через торрент | qTorrent



    Последний раз редактировалось: GEKADOL (2016-11-21 11:42), всего редактировалось 7 раз(а)

    28-11-2019 20:33  

    Отключить всю рекламу на сайте

    19-08-2016 17:54 Мертвое лето Скачать торрент  

    .pb.wtf



    03-09-2016 06:15 Мертвое лето Скачать торрент  

    и как???! смотрибельно?!pb.wtf



    03-09-2016 07:14 Мертвое лето Скачать торрент  

    сериалы в наше время как грибы после дождя)pb.wtf



    19-10-2016 12:27 Мертвое лето Скачать торрент  

    так интересно или нет?pb.wtf



      Дорогой пользователь! Огромная просьба, поблагодарите релизера, оцените раздачу и оставьте свои комментарий, если Вы скачали Мертвое лето через торрент бесплатно! Внесите свою лепту в развитие PiratBit!
      Комментировать посты могут только пользователи прошедшие не сложную регистрацию
      Показать сообщения:    

      Мертвое лето через торрент
      Скачать бесплатно Мертвое лето
      Мертвое лето скачать торрент
      Мертвое лето смотреть онлайн
      Cкачать фильм Мертвое лето бесплатно
      Мертвое лето скачать торрент в хорошем качестве
      Мертвое лето смотреть онлайн бесплатно в хорошем качестве


      Вы не можете начинать темы
      Вы не можете отвечать на сообщения
      Вы не можете редактировать свои сообщения
      Вы не можете удалять свои сообщения
      Вы не можете голосовать в опросах
      Вы не можете прикреплять файлы к сообщениям
      Вы можете скачивать файлы