Ссылка на приватное зеркало нашего сайта всего за 1$. Внимание количество ограничено!!!

2 сезон

iTunes

1 сезон

1

iTunes

iTunes

iTunes

1 сезон

RePack

30

ИГРА 18+

pack

ВАЖНО

!!Акция!!

Alien_RageХит недели

RePack

MK11
pack

Забери бонус

RePack

jed

!!Акция!!

Alien_Rage

RePack

fifa19

RePack

Assassins Creed: Odyssey

RePack

NEED FOR SPEED™ PAYBACK

4 сезон

9 сезон

Бесстыжие 9 сезон

Все сериалы

все сериалы на PB.wtf

RePack

FAR CRY 5
  

Любовь: Инструкция по применению / Manuale d'am3re (Джованни Веронези) [2011, мелодрама, комедия, BDRip 720p by msltel] DUB pb.wtf

Любовь: Инструкция по применению через торрент pb.wtf

Размер: 5.62 GB | Добавлен: 4 года 2 мес. назад | Торрент скачан:84 раза
Скачать  

06-08-2016 09:51 Любовь: Инструкция по применению Скачать торрент  

Название: Любовь. Инструкция по применению
Оригинальное название: Manuale d'am3re
Год выпуска: 2011
Страна: Италия
Жанр: мелодрама, комедия
Продолжительность: 02:10:49
Перевод: дублированный

Режиссёр: Джованни Веронези

В ролях: Риккардо Скамарчио, Микеле Плачидо, Лаура Кьятти, Валерия Соларино, Карло Вердоне, Донателла Финокьяро, Даниэле Печчи, Марина Рокко, Роберт Де Ниро, Моника Беллуччи

Описание: Три новеллы повествуют о том, какой бывает любовь в разные периоды жизни, и как переплетения судеб и житейские случайности помогают разобраться в природе человеческих чувств.
«Молодость» — это история молодого амбициозного юриста Роберто, которого накануне своей свадьбы неожиданно ослепляет вспышка страсти к совсем другой женщине...
В «Зрелости» успешный телеведущий Фабио, преданный муж и заботливый отец, по стечению удивительных обстоятельств, оказывается в объятиях молодой Элианы...
«После» — история Адриана, американского профессора истории искусств, который после развода решает переехать в Рим. Он одинок и подавлен. Единственный, кто проявляет к Адриану хоть какой-то интерес — это швейцар Августо. Именно ему Адриан рассказывает свою тайну: семь лет назад он перенес сложнейшую операцию на сердце. Сжалившись над одиноким Адрианом, Августо приводит его в свой дом и знакомит со своей семьёй. И как только Адриан видит красавицу-дочь Августо, он мгновенно забывает о шрамах на своем сердце...



Качество: BDRip 720p Сравнение с исходником
Формат: MKV
Видео: MPEG-4 AVC, 5446 Кбит/с, 1280x692, 24 кадр/с
Аудио 1: русский, AC3, 448 kbps, 6 ch, 48 kHz [дублированный]
Аудио 2: английский, AC3, 448 kbps, 6 ch, 48 kHz [оригинал]
Субтитры: русские
Общее
Уникальный идентификатор : 243812675187513173053336730343980726159 (0xB76C9CFA71C784A2B096F59BACE4F78F)
Полное имя : D:\Video\Любовь. Инструкция по применению.2011.BDRip.720p.mkv
Формат : Matroska
Версия формата : Version 4 / Version 2
Размер файла : 5,62 Гбайт
Продолжительность : 2 ч. 10 м.
Общий поток : 6153 Кбит/сек
Дата кодирования : UTC 2016-08-06 06:29:36
Программа кодирования : mkvmerge v8.2.0 ('World of Adventure') 64bit
Библиотека кодирования : libebml v1.3.1 + libmatroska v1.4.2

Видео
Идентификатор : 1
Формат : AVC
Формат/Информация : Advanced Video Codec
Профиль формата : High@L4.1
Параметр CABAC формата : Да
Параметр ReFrames формата : 9 кадров
Идентификатор кодека : V_MPEG4/ISO/AVC
Продолжительность : 2 ч. 6 м.
Битрейт : 5446 Кбит/сек
Ширина : 1280 пикселей
Высота : 692 пикселя
Соотношение сторон : 1,85:1
Режим частоты кадров : Постоянный
Частота кадров : 24,000 кадра/сек
Цветовое пространство : YUV
Субдискретизация насыщенности : 4:2:0
Битовая глубина : 8 бит
Тип развёртки : Прогрессивная
Бит/(Пиксели*Кадры) : 0.256
Размер потока : 4,80 Гбайт (85%)
Библиотека кодирования : x264 core 146 r2538 121396c
Настройки программы : cabac=1 / ref=9 / deblock=1:-1:-1 / analyse=0x3:0x113 / me=umh / subme=10 / psy=1 / psy_rd=1.00:0.15 / mixed_ref=1 / me_range=32 / chroma_me=1 / trellis=2 / 8x8dct=1 / cqm=0 / deadzone=21,11 / fast_pskip=1 / chroma_qp_offset=-3 / threads=6 / lookahead_threads=1 / sliced_threads=0 / nr=0 / decimate=1 / interlaced=0 / bluray_compat=0 / constrained_intra=0 / bframes=10 / b_pyramid=2 / b_adapt=2 / b_bias=0 / direct=1 / weightb=1 / open_gop=0 / weightp=2 / keyint=230 / keyint_min=23 / scenecut=40 / intra_refresh=0 / rc_lookahead=40 / rc=crf / mbtree=0 / crf=19.5 / qcomp=0.60 / qpmin=0 / qpmax=69 / qpstep=4 / vbv_maxrate=40000 / vbv_bufsize=50000 / crf_max=0.0 / nal_hrd=none / filler=0 / ip_ratio=1.40 / pb_ratio=1.30 / aq=1:1.00
Язык : Italian
Default : Да
Forced : Нет

Аудио #1
Идентификатор : 2
Формат : AC-3
Формат/Информация : Audio Coding 3
Расширение режима : CM (complete main)
Параметр Endianness формата : Big
Идентификатор кодека : A_AC3
Продолжительность : 2 ч. 10 м.
Вид битрейта : Постоянный
Битрейт : 448 Кбит/сек
Каналы : 6 каналов
Расположение каналов : Front: L C R, Side: L R, LFE
Частота : 48,0 КГц
Частота кадров : 31,250 кадров/сек (1536 spf)
Метод сжатия : С потерями
Размер потока : 419 Мбайт (7%)
Заголовок : DUB
Язык : Russian
Default : Да
Forced : Нет

Аудио #2
Идентификатор : 3
Формат : AC-3
Формат/Информация : Audio Coding 3
Расширение режима : CM (complete main)
Параметр Endianness формата : Big
Идентификатор кодека : A_AC3
Продолжительность : 2 ч. 10 м.
Вид битрейта : Постоянный
Битрейт : 448 Кбит/сек
Каналы : 6 каналов
Расположение каналов : Front: L C R, Side: L R, LFE
Частота : 48,0 КГц
Частота кадров : 31,250 кадров/сек (1536 spf)
Метод сжатия : С потерями
Размер потока : 419 Мбайт (7%)
Заголовок : original
Язык : Italian
Default : Нет
Forced : Нет

Текст
Идентификатор : 4
Формат : UTF-8
Идентификатор кодека : S_TEXT/UTF8
Идентификатор кодека/Информация : UTF-8 Plain Text
Продолжительность : 2 ч. 1 м.
Битрейт : 130 бит/сек
Count of elements : 2012
Размер потока : 116 Кбайт (0%)
Заголовок : русские
Язык : Russian
Default : Нет
Forced : Нет
pb.wtf



Скачать Любовь: Инструкция по применению через торрент http://s020.radikal.ru/i712/1608/f9/7a54726e7043.jpg Скачать фильм Любовь: Инструкция по применению через торрент бесплантно в хорошем качестве Описание: Три новеллы повествуют о том, какой бывает любовь в разные периоды жизни, и как переплетения судеб и житейские случайности ... 9.3 10 4
Торрент: Зарегистрирован [2016-08-06 09:51] · скачан: 84 раз
Статус: √ проверено
Размер: 5.62 GB
Как cкачать? Как скачать Любовь: Инструкция по применению через торрент | qTorrent

28-11-2019 20:33  

Отключить всю рекламу на сайте

10-08-2016 14:55 Любовь: Инструкция по применению Скачать торрент  

Прикольная киношка посмеяться можно) pb.wtf



    Дорогой пользователь! Огромная просьба, поблагодарите релизера, оцените раздачу и оставьте свои комментарий, если Вы скачали Любовь: Инструкция по применению через торрент бесплатно! Внесите свою лепту в развитие PiratBit!
    Комментировать посты могут только пользователи прошедшие не сложную регистрацию
    Показать сообщения:    

    Любовь: Инструкция по применению через торрент
    Скачать бесплатно Любовь: Инструкция по применению
    Любовь: Инструкция по применению скачать торрент
    Любовь: Инструкция по применению смотреть онлайн
    Cкачать фильм Любовь: Инструкция по применению бесплатно
    Любовь: Инструкция по применению скачать торрент в хорошем качестве
    Любовь: Инструкция по применению смотреть онлайн бесплатно в хорошем качестве


    Вы не можете начинать темы
    Вы не можете отвечать на сообщения
    Вы не можете редактировать свои сообщения
    Вы не можете удалять свои сообщения
    Вы не можете голосовать в опросах
    Вы не можете прикреплять файлы к сообщениям
    Вы можете скачивать файлы