Ссылка на приватное зеркало нашего сайта всего за 1$. Внимание количество ограничено!!!

2 сезон

iTunes

1 сезон

1

iTunes

iTunes

iTunes

1 сезон

RePack

30

ИГРА 18+

pack

ВАЖНО

!!Акция!!

Alien_RageХит недели

RePack

MK11
pack

Забери бонус

RePack

jed

!!Акция!!

Alien_Rage

RePack

fifa19

RePack

Assassins Creed: Odyssey

RePack

NEED FOR SPEED™ PAYBACK

4 сезон

9 сезон

Бесстыжие 9 сезон

Все сериалы

все сериалы на PB.wtf

RePack

FAR CRY 5
  

Грозовые ворота / Серии: 1-4 из 4 ( Андрей Малюков) [2006, боевик, военный фильм, WEBRip] pb.wtf

Грозовые ворота через торрент pb.wtf

Раздают: 2 [ 0 KB/s ]
Размер: 2.63 GB | Добавлен: 4 года 2 мес. назад | Торрент скачан:371 раз
Скачать  

06-08-2016 12:41 Грозовые ворота Скачать торрент  

Грозовые ворота




Год выпуска: 2006
Производство: Россия, Первый канал, к/ст Вертикаль
Жанр: боевик, военный фильм
Продолжительность: 00:52:00
Субтитры: нет



Режиссёр: Андрей Малюков



В ролях: Михаил Пореченков, Вячеслав Разбегаев, Анатолий Пашинин, Андрей Краско, Иван Жидков, Евгений Потапенко, Михаил Ефремов, Даниил Страхов, Елизавета Боярская, Марина Могилевская, Юрий Цурило, Виктория Толстоганова, Анастасия Цветаева, Борис Щербаков, Екатерина Климова, Александр Лойе, Никита Емшанов, Сахат Дурсунов, Максим Зыков, Марина Яковлева, Раиса Рязанова, Алексей Шевченков, Александр Фисенко, Илья Бледный, Степан Лапшин.




Описание: Люди на войне. В бою. В разведке. В отступлении. В атаке…Дни и ночи, проведенные в полевой обстановке заставляют задуматься и вспомнить - почему мы здесь? И в памяти каждого выплывают картины из прошлой и такой далекой теперь жизни… У каждого героя своя предыстория. Кто-то открывает для себя мир, кто-то сбегает от любви, кто-то доказывает свою самостоятельность, кто-то - мстит… Такие разные, они оказываются в бою, плечом к плечу: вчерашние школьники и опытные полевые командиры. Фильм раскрывает внутренний мир каждого из них, желания, мечты, боль, надежды…








Релиз от:



Качество: WEBRip
Формат: AVI
Видео кодек: XviD
Аудио кодек: AC3
Видео: 720x400 (1.80:1), 25 fps, XviD build 50 ~1699 kbps avg, 0.24 bit/pixel
Аудио: 44.1 kHz, AC3 Dolby Digital, 2/0 (L,R) ch, ~192 kbps



Общее
Полное имя : D:\Грозовые ворота\01 серия_Грозовые ворота_rip by_Aleksan55.avi
Формат : AVI
Формат/Информация : Audio Video Interleave
Размер файла : 707 Мбайт
Продолжительность : 52 м.
Общий поток : 1901 Кбит/сек
Программа кодирования : VirtualDubMod 1.5.10.3 | www.virtualdub-fr.org || (build 2550/release)
Библиотека кодирования : VirtualDubMod build 2550/release

Видео
Идентификатор : 0
Формат : MPEG-4 Visual
Профиль формата : Advanced Simple@L5
Параметр BVOP формата : 1
Параметр QPel формата : Да
Параметр GMC формата : Без точки перехода
Параметр матрицы формата : Default (H.263)
Идентификатор кодека : XVID
Идентификатор кодека/Подсказка : XviD
Продолжительность : 52 м.
Битрейт : 1700 Кбит/сек
Ширина : 720 пикселей
Высота : 400 пикселей
Соотношение сторон : 16:9
Частота кадров : 25,000 кадров/сек
Цветовое пространство : YUV
Субдискретизация насыщенности : 4:2:0
Битовая глубина : 8 бит
Тип развёртки : Прогрессивная
Метод сжатия : С потерями
Бит/(Пиксели*Кадры) : 0.236
Размер потока : 632 Мбайт (89%)
Библиотека кодирования : XviD 1.2.1 (UTC 2008-12-04)

Аудио
Идентификатор : 1
Формат : AC-3
Формат/Информация : Audio Coding 3
Расширение режима : CM (complete main)
Параметр Endianness формата : Big
Идентификатор кодека : 2000
Продолжительность : 52 м.
Вид битрейта : Постоянный
Битрейт : 192 Кбит/сек
Каналы : 2 канала
Расположение каналов : Front: L R
Частота : 44,1 КГц
Метод сжатия : С потерями
Размер потока : 71,4 Мбайт (10%)
Выравнивание : Разделение по промежуткам
Продолжительность промежутка : 40 мс. (1,00 видеокадр)
Время предзагрузки промежутка : 500 мс.


Рекламы нет.pb.wtf



Скачать Грозовые ворота через торрент http://s018.radikal.ru/i521/1608/ef/34c6fa9c6e5d.jpg Скачать фильм Грозовые ворота через торрент бесплантно в хорошем качестве Описание: Люди на войне. В бою. В разведке. В отступлении. В атаке…Дни и ночи, проведенные в полевой обстановке заставляют задуматься и ... 10 10 12
Info! Золотая раздача, скачанное не засчитывается.
Торрент: Зарегистрирован [2016-08-06 12:41] · скачан: 371 раз
Статус: √ проверено
Размер: 2.63 GB
Как cкачать? Как скачать Грозовые ворота через торрент | qTorrent

% Раздел Тема Автор DL S | L
Наши сериалы [ 4.55 GB ] Грозовые ворота / Серии: 1-4 из 4 [2006 военный фильм WEBRip-AVC] - ExKinoRay Enigma2010 Скачать
1 | 0
Наши сериалы [ 2.74 GB ] Грозовые ворота [2006 военный. DVDRip] Anonymous Скачать
1 | 0

28-11-2019 20:33  

Отключить всю рекламу на сайте

06-08-2016 16:56 Грозовые ворота Скачать торрент  

Хорошее киноpb.wtf



    Дорогой пользователь! Огромная просьба, поблагодарите релизера, оцените раздачу и оставьте свои комментарий, если Вы скачали Грозовые ворота через торрент бесплатно! Внесите свою лепту в развитие PiratBit!
    Комментировать посты могут только пользователи прошедшие не сложную регистрацию
    Показать сообщения:    

    Грозовые ворота через торрент
    Скачать бесплатно Грозовые ворота
    Грозовые ворота скачать торрент
    Грозовые ворота смотреть онлайн
    Cкачать фильм Грозовые ворота бесплатно
    Грозовые ворота скачать торрент в хорошем качестве
    Грозовые ворота смотреть онлайн бесплатно в хорошем качестве


    Вы не можете начинать темы
    Вы не можете отвечать на сообщения
    Вы не можете редактировать свои сообщения
    Вы не можете удалять свои сообщения
    Вы не можете голосовать в опросах
    Вы не можете прикреплять файлы к сообщениям
    Вы можете скачивать файлы