Ссылка на приватное зеркало всего за 1$. Внимание количество ограничено!!!

iTunes

iTunes

iTunes

1

iTunes

iTunes

iTunes

iTunes

iTunes

30
pack

Новость дня

ВАЖНО

!!Акция!!

Alien_RageХит недели

RePack

Resident Evil 21

ИГРА 18+

pack

RePack

jed

!!Акция!!

Alien_Rage

RePack

fifa19

RePack

Assassins Creed: Odyssey

RePack

NEED FOR SPEED™ PAYBACK

4 сезон

9 сезон

Бесстыжие 9 сезон

Все сериалы

все сериалы на PB.wtf

RePack

FAR CRY 5
  

Запрет (Алексей Козлов) [2015 г., драма, военный, история, HDTVRip] pb.wtf

Запрет через торрент pb.wtf

Размер: 1.37 GB | Добавлен: 3 года 9 мес. назад | Торрент скачан:212 раз
Скачать  

07-08-2016 07:32 Запрет Скачать торрент  

Запрет
Год выпуска: 2015
Страна: Россия
Жанр: драма, военный, история
Продолжительность: 01:28:18

Режиссер: Алексей Козлов



В ролях: Наталья Ткаченко, Анна Молчанова, Джулиано Ди Капуа, Сергей Яценюк, Георгий Тараторкин, Валентина Панина, Сергей Жукович, Мария Рочева, Ирина Обрезкова, Дмитрий Кочкин, Денис Моисеев, Руслан Барабанов, Дмитрий Чудин, Вячеслав Отливанов, Сергей Евдокимов, Сергей Завьялов, Фабио Пирола, Даниил Кокин, Полина Чичканова

Описание: История любви итальянского офицера Джакомо и православной послушницы Лоры. Идёт война, и на любовь наложен запрет. Джакомо — итальянец, и он — враг! Так рассуждает обожженный войной, непримиримый к врагу русский капитан Георгий, от любви к которому тает сердце монахини Пелагеи. Их будет четверо, загнанных войной на маленький каменный остров в Ладоге. Они все здесь, на этом камне, как у Бога на ладошке… Кому из них суждено погибнуть? Кому победить и остаться в живых?

Качество: HDTVRip
Формат: AVI
Видео кодек: XviD
Аудио кодек: AC3
Видео: XviD / 720x400 / 25.00 fps / 2 017 kb/s
Аудио: AC3 / 48.0 KHz / 2 ch / 192 Kbps
General
Complete name : C:\PiratBit\Zapret.2014.HDTVRip.Files-x.avi
Format : AVI
Format/Info : Audio Video Interleave
File size : 1.37 GiB
Duration : 1 h 28 min
Overall bit rate : 2 219 kb/s
Writing application : VirtualDubMod 1.5.10.3 | www.virtualdub-fr.org || (build 2550/release)
Writing library : VirtualDubMod build 2550/release

Video
ID : 0
Format : MPEG-4 Visual
Format profile : Advanced Simple@L5
Format settings, BVOP : 1
Format settings, QPel : No
Format settings, GMC : No warppoints
Format settings, Matrix : Custom
Codec ID : XVID
Codec ID/Hint : XviD
Duration : 1 h 28 min
Bit rate : 2 017 kb/s
Width : 720 pixels
Height : 400 pixels
Display aspect ratio : 16:9
Frame rate : 25.000 FPS
Color space : YUV
Chroma subsampling : 4:2:0
Bit depth : 8 bits
Scan type : Progressive
Compression mode : Lossy
Bits/(Pixel*Frame) : 0.280
Stream size : 1.24 GiB (91%)
Writing library : XviD 73

Audio
ID : 1
Format : AC-3
Format/Info : Audio Coding 3
Mode extension : CM (complete main)
Format settings, Endianness : Big
Codec ID : 2000
Duration : 1 h 28 min
Bit rate mode : Constant
Bit rate : 192 kb/s
Channel(s) : 2 channels
Channel positions : Front: L R
Sampling rate : 48.0 kHz
Frame rate : 31.250 FPS (1536 spf)
Compression mode : Lossy
Stream size : 121 MiB (9%)
Alignment : Split accross interleaves
Interleave, duration : 40 ms (1.00 video frame)
Interleave, preload duration : 500 ms

pb.wtf



Скачать Запрет через торрент http://pic1.kartinco.top/images/10/lyoyx.jpg Скачать фильм Запрет через торрент бесплантно в хорошем качестве Описание: История любви итальянского офицера Джакомо и православной послушницы Лоры. Идёт война, и на любовь наложен запрет. Джакомо — ... 9.5 10 13
Info! Золотая раздача, скачанное не засчитывается.
Торрент: Зарегистрирован [2016-08-07 07:32] · скачан: 212 раз
Статус: √ проверено
Размер: 1.37 GB
Как cкачать? Как скачать Запрет через торрент | qTorrent

% Раздел Тема Автор DL S | L
T Фильмы 2013 (Звук TS, Cam, VO, DVO) [ 1.37 GB ] Запретная территория / Wetlands / Feuchtgebiete [2013 Германия WEBRip |Любительское Ворон Скачать
1 | 0
Гонзо [ 2.56 GB ] Запретные Семейные Романы 5 / Forbidden Family Affairs 5 [2017 All Sex Oral Gonzo Legal Teen Family Roleplay WEB-DLRip 540p] Split Scenes sheker187 Скачать
1 | 0
Гонзо [ 1.96 GB ] Нарушая Запреты 2 / Broken Vows 2 [2016 All Sex Oral Gonzo Big Tits Hotwife Wives WEB-DLRip 480p] Split Scenes sheker187 Скачать
1 | 0
Порно фильмы с сюжетом [ 2.25 GB ] Запретные Романы 7 / Forbidden Affairs 7: My Sons Wife [2016 Feature Foreign Straight Oral Teen WEB-DLRip 544p] Split Scenes sheker187 Скачать
1 | 0
Порно фильмы HD [ 5.61 GB ] Запретные Романы 7 / Forbidden Affairs 7: My Son's Wife [2016 Feature All Sex Oral 18+ Teens Affairs & Love Triangles Family Roleplay WEB-DL 720p Оригинальный] nn99nn Скачать
1 | 0
Мультфильмы / Cartoons [ 1.67 GB ] Запретная Очаровательная Мачеха 1-6/Taboo Charming Mother 1-6 [2003-2005 г Housewives Incest Anal Big Tits Group Oral DVDRip] DJASFUL Скачать
2 | 1
T Релизы по Парсеру [Игры, Сериалы и Фильмы и другое...] [ 746 MB ] Запретное удовольствие / Zakazane uvolneni [WEB-DLRip / VO] Ворон Скачать
1 | 0

28-11-2019 20:33  

Отключить всю рекламу на сайте

09-08-2016 21:15 Запрет Скачать торрент  

Как фильм господа?pb.wtf



    Дорогой пользователь! Огромная просьба, поблагодарите релизера, оцените раздачу и оставьте свои комментарий, если Вы скачали Запрет через торрент бесплатно! Внесите свою лепту в развитие PiratBit!
    Комментировать посты могут только пользователи прошедшие не сложную регистрацию
    Показать сообщения:    

    Запрет через торрент
    Скачать бесплатно Запрет
    Запрет скачать торрент
    Запрет смотреть онлайн
    Cкачать фильм Запрет бесплатно
    Запрет скачать торрент в хорошем качестве
    Запрет смотреть онлайн бесплатно в хорошем качестве


    Вы не можете начинать темы
    Вы не можете отвечать на сообщения
    Вы не можете редактировать свои сообщения
    Вы не можете удалять свои сообщения
    Вы не можете голосовать в опросах
    Вы не можете прикреплять файлы к сообщениям
    Вы можете скачивать файлы