MEGA SALE -50% FORZA HORIZON 4 ULTIMATE+ВСЕ DLC+ОНЛАЙН всего за 599р. 299 руб. (супер цена). Внимание количество ограничено!!!

iTunes

1+1

iTunes

мы

iTunes

1

iTunes

Чернобыль

iTunes

Ральф против интернета

Лицензия

ПШазам

Лицензия

Игра престолов

Лицензия

30
pack

ВАЖНО

!!Акция!!

Alien_RageХит недели

RePack

Resident Evil 21

ИГРА 18+

pack

RePack

Metro:Exodus

!!Акция!!

Alien_Rage

RePack

fifa19

RePack

Assassins Creed: Odyssey

RePack

NEED FOR SPEED™ PAYBACK

3 сезон

9 сезон

Бесстыжие 9 сезон

Все сериалы

все сериалы на PB.wtf

RePack

FAR CRY 5
Ребята, катастрофически не хватает 7730р. для оплаты серверов за ИЮЛЬ (всвязи с блокировками трафик упал в 3 раза), 1-2р., выручайте.
  

Игра Престолов / Game Of Thrones / Сезоны: 1-8 / Серии: 1-73 из 73 / (Брайан Кирк, Даниэль Минахан, Алан Тейлор) [2011-2019, фэнтези, драма, приключения, BDRip,WEB-DL​Rip] MVO (LostFilm) pb.wtf

Игра Престолов через торрент pb.wtf

Раздают: 12 [ 852 KB/s ] Качают: 10 [ 404 KB/s ]
Размер: 55.77 GB | Добавлен: 2 мес. 27 д. назад | Торрент скачан:251 раз
Скачать  

07-08-2016 19:07 Игра Престолов Скачать торрент  


Игра престолов |Game of Thrones
«Победа или смерть»



Игра престолов |Game of Thrones
«Победа или смерть»

Информация:
  • Год выпуска: 2011
  • Страна: США
  • Жанр: Фэнтези, драма, приключения, экранизация
  • Продолжительность серии: ~ 00:50:00
  • Перевод: Профессиональный (многоголосый закадровый) LostFilm


Режиссер: Дэвид Наттер

В ролях:
Питер Динклэйдж / Peter Dinklage (Tyrion Lannister), Лина Хиди / Lena Headey (Cersei Lannister), Эмилия Кларк / Emilia Clarke (Daenerys Targaryen), Кит Харингтон / Kit Harington (Jon Snow), Николай Костер-Вальдау / Nikolaj Coster-Waldau (Jaime Lannister), Мэйси Уильямс / Maisie Williams (Arya Stark), Софи Тернер / Sophie Turner (Sansa Stark), Айзек Хемпстед-Райт / Isaac Hempstead Wright (Bran Stark)


Описание:
Гражданская война в Семи королевствах подходит к концу. Один король сражен тенью собственного брата, другой убит на свадьбе, третий царит на море, но на суше он никто. Четвертый по воле Владыки Света отправился к границе, разделяющей мир живых и мертвецов. Пятый же — на Железном троне и готовится к свадьбе и союзу, который навсегда покончит с притязаниями на престол со стороны… Если только не окажутся правдой слухи о последней из рода Таргариенов, ее драконах, воинах-безупречных и их победах в каких-то далеких землях. Но зима уже на пороге, урожай погиб, а Иные пробудились: одичалые бегут от них к Стене, дозорные — за Стену, и только калека со своими спутниками направляются в самое сердце Севера.

Тех.данные:
Качество: BDRip
Формат: AVI
Видео кодек: XviD
Аудио кодек: AC3
Видео: 720x400 / 16:9 / 1500 kbps / 23.976 fps / 0.217 bit/pixel
  • Аудио Rus: AC3 | 48 KHz | 5.1 (Front: L С R Side: L R) + LFE | ~448 kbps/ |LostFilm|

    Общее
    Полное имя : E:\BT\Game of Thrones\Season 1\Game.of.Thrones.s01e01.XviD.BDrip.LostFilm.[qqss44].avi
    Формат : AVI
    Формат/Информация : Audio Video Interleave
    Размер файла : 863 Мбайт
    Продолжительность : 1 ч. 1 м.
    Общий поток : 1957 Кбит/сек
    Программа кодирования : VirtualDubMod 1.5.10.3 | www.virtualdub-fr.org || (build 2550/release)
    Библиотека кодирования : VirtualDubMod build 2550/release

    Видео
    Идентификатор : 0
    Формат : MPEG-4 Visual
    Профиль формата : Advanced Simple@L5
    Параметр BVOP формата : 2
    Параметр QPel формата : Нет
    Параметр GMC формата : Без точки перехода
    Параметр матрицы формата : Default (MPEG)
    Идентификатор кодека : XVID
    Идентификатор кодека/Подсказка : XviD
    Продолжительность : 1 ч. 1 м.
    Битрейт : 1500 Кбит/сек
    Ширина : 720 пикселей
    Высота : 400 пикселей
    Соотношение сторон : 16:9
    Частота кадров : 23,976 (23976/1000) кадра/сек
    Цветовое пространство : YUV
    Субдискретизация насыщенности : 4:2:0
    Битовая глубина : 8 бит
    Тип развёртки : Прогрессивная
    Метод сжатия : С потерями
    Бит/(Пиксели*Кадры) : 0.217
    Размер потока : 661 Мбайт (77%)
    Библиотека кодирования : XviD 73

    Аудио
    Идентификатор : 1
    Формат : AC-3
    Формат/Информация : Audio Coding 3
    Расширение режима : CM (complete main)
    Параметр Endianness формата : Big
    Идентификатор кодека : 2000
    Продолжительность : 1 ч. 1 м.
    Вид битрейта : Постоянный
    Битрейт : 448 Кбит/сек
    Каналы : 6 каналов
    Расположение каналов : Front: L C R, Side: L R, LFE
    Частота : 48,0 КГц
    Частота кадров : 31,250 кадров/сек (1536 spf)
    Метод сжатия : С потерями
    Размер потока : 197 Мбайт (23%)
    Выравнивание : Разделение по промежуткам
    Продолжительность промежутка : 42 мс. (1,00 видеокадр)
    Время предзагрузки промежутка : 500 мс.



Игра престолов |Game of Thrones
«Победа или смерть»

Информация:
  • Год выпуска: 2012
  • Страна: США
  • Жанр: Фэнтези, драма, приключения, экранизация
  • Продолжительность серии: ~ 00:50:00
  • Перевод: Профессиональный (многоголосый закадровый) LostFilm


Режиссер: Дэвид Наттер

В ролях:
Питер Динклэйдж / Peter Dinklage (Tyrion Lannister), Лина Хиди / Lena Headey (Cersei Lannister), Эмилия Кларк / Emilia Clarke (Daenerys Targaryen), Кит Харингтон / Kit Harington (Jon Snow), Николай Костер-Вальдау / Nikolaj Coster-Waldau (Jaime Lannister), Мэйси Уильямс / Maisie Williams (Arya Stark), Софи Тернер / Sophie Turner (Sansa Stark), Айзек Хемпстед-Райт / Isaac Hempstead Wright (Bran Stark)


Описание:
Гражданская война в Семи королевствах подходит к концу. Один король сражен тенью собственного брата, другой убит на свадьбе, третий царит на море, но на суше он никто. Четвертый по воле Владыки Света отправился к границе, разделяющей мир живых и мертвецов. Пятый же — на Железном троне и готовится к свадьбе и союзу, который навсегда покончит с притязаниями на престол со стороны… Если только не окажутся правдой слухи о последней из рода Таргариенов, ее драконах, воинах-безупречных и их победах в каких-то далеких землях. Но зима уже на пороге, урожай погиб, а Иные пробудились: одичалые бегут от них к Стене, дозорные — за Стену, и только калека со своими спутниками направляются в самое сердце Севера.

Тех.данные:
Качество: BDRip
Формат: AVI
Видео кодек: XviD
Аудио кодек: AC3
Видео: 720x400 / 16:9 / 1500 kbps / 23.976 fps / 0.217 bit/pixel
  • Аудио Rus: AC3 | 48 KHz | 5.1 (Front: L С R Side: L R) + LFE | ~384 kbps/ |LostFilm|

    Общее
    Полное имя : E:\BT\Game of Thrones\Season 2\Game.of.Thrones.s02e01.XviD.BDrip.LostFilm.[qqss44].avi
    Формат : AVI
    Формат/Информация : Audio Video Interleave
    Размер файла : 713 Мбайт
    Продолжительность : 52 м.
    Общий поток : 1893 Кбит/сек
    Программа кодирования : VirtualDubMod 1.5.10.3 | www.virtualdub-fr.org || (build 2550/release)
    Библиотека кодирования : VirtualDubMod build 2550/release

    Видео
    Идентификатор : 0
    Формат : MPEG-4 Visual
    Профиль формата : Advanced Simple@L5
    Параметр BVOP формата : 2
    Параметр QPel формата : Нет
    Параметр GMC формата : Без точки перехода
    Параметр матрицы формата : Default (MPEG)
    Идентификатор кодека : XVID
    Идентификатор кодека/Подсказка : XviD
    Продолжительность : 52 м.
    Битрейт : 1499 Кбит/сек
    Ширина : 720 пикселей
    Высота : 400 пикселей
    Соотношение сторон : 16:9
    Частота кадров : 23,976 (23976/1000) кадра/сек
    Цветовое пространство : YUV
    Субдискретизация насыщенности : 4:2:0
    Битовая глубина : 8 бит
    Тип развёртки : Прогрессивная
    Метод сжатия : С потерями
    Бит/(Пиксели*Кадры) : 0.217
    Размер потока : 565 Мбайт (79%)
    Библиотека кодирования : XviD 73

    Аудио
    Идентификатор : 1
    Формат : AC-3
    Формат/Информация : Audio Coding 3
    Расширение режима : CM (complete main)
    Параметр Endianness формата : Big
    Идентификатор кодека : 2000
    Продолжительность : 52 м.
    Вид битрейта : Постоянный
    Битрейт : 384 Кбит/сек
    Каналы : 6 каналов
    Расположение каналов : Front: L C R, Side: L R, LFE
    Частота : 48,0 КГц
    Частота кадров : 31,250 кадров/сек (1536 spf)
    Метод сжатия : С потерями
    Размер потока : 145 Мбайт (20%)
    Выравнивание : Разделение по промежуткам
    Продолжительность промежутка : 42 мс. (1,00 видеокадр)
    Время предзагрузки промежутка : 500 мс.



Игра престолов |Game of Thrones
«Победа или смерть»

Информация:
  • Год выпуска: 2013
  • Страна: США
  • Жанр: Фэнтези, драма, приключения, экранизация
  • Продолжительность серии: ~ 00:50:00
  • Перевод: Профессиональный (многоголосый закадровый) LostFilm


Режиссер: Дэвид Наттер

В ролях:
Питер Динклэйдж / Peter Dinklage (Tyrion Lannister), Лина Хиди / Lena Headey (Cersei Lannister), Эмилия Кларк / Emilia Clarke (Daenerys Targaryen), Кит Харингтон / Kit Harington (Jon Snow), Николай Костер-Вальдау / Nikolaj Coster-Waldau (Jaime Lannister), Мэйси Уильямс / Maisie Williams (Arya Stark), Софи Тернер / Sophie Turner (Sansa Stark), Айзек Хемпстед-Райт / Isaac Hempstead Wright (Bran Stark)


Описание:
Гражданская война в Семи королевствах подходит к концу. Один король сражен тенью собственного брата, другой убит на свадьбе, третий царит на море, но на суше он никто. Четвертый по воле Владыки Света отправился к границе, разделяющей мир живых и мертвецов. Пятый же — на Железном троне и готовится к свадьбе и союзу, который навсегда покончит с притязаниями на престол со стороны… Если только не окажутся правдой слухи о последней из рода Таргариенов, ее драконах, воинах-безупречных и их победах в каких-то далеких землях. Но зима уже на пороге, урожай погиб, а Иные пробудились: одичалые бегут от них к Стене, дозорные — за Стену, и только калека со своими спутниками направляются в самое сердце Севера.

Тех.данные:
Качество: BDRip
Формат: AVI
Видео кодек: XviD
Аудио кодек: AC3
Видео: 720x400 / 16:9 / 1500 kbps / 23.976 fps / 0.217 bit/pixel
  • Аудио Rus: AC3 | 48 KHz | 5.1 (Front: L С R Side: L R) + LFE | ~384 kbps/ |LostFilm|

    Общее
    Полное имя : E:\BT\Game of Thrones\Season 3\Game.of.Thrones.s03e01.XviD.BDrip.LostFilm.[qqss44].avi
    Формат : AVI
    Формат/Информация : Audio Video Interleave
    Размер файла : 738 Мбайт
    Продолжительность : 54 м.
    Общий поток : 1893 Кбит/сек
    Программа кодирования : VirtualDubMod 1.5.10.3 | www.virtualdub-fr.org || (build 2550/release)
    Библиотека кодирования : VirtualDubMod build 2550/release

    Видео
    Идентификатор : 0
    Формат : MPEG-4 Visual
    Профиль формата : Advanced Simple@L5
    Параметр BVOP формата : 2
    Параметр QPel формата : Нет
    Параметр GMC формата : Без точки перехода
    Параметр матрицы формата : Default (MPEG)
    Идентификатор кодека : XVID
    Идентификатор кодека/Подсказка : XviD
    Продолжительность : 54 м.
    Битрейт : 1500 Кбит/сек
    Ширина : 720 пикселей
    Высота : 400 пикселей
    Соотношение сторон : 16:9
    Частота кадров : 23,976 (23976/1000) кадра/сек
    Цветовое пространство : YUV
    Субдискретизация насыщенности : 4:2:0
    Битовая глубина : 8 бит
    Тип развёртки : Прогрессивная
    Метод сжатия : С потерями
    Бит/(Пиксели*Кадры) : 0.217
    Размер потока : 585 Мбайт (79%)
    Библиотека кодирования : XviD 73

    Аудио
    Идентификатор : 1
    Формат : AC-3
    Формат/Информация : Audio Coding 3
    Расширение режима : CM (complete main)
    Параметр Endianness формата : Big
    Идентификатор кодека : 2000
    Продолжительность : 54 м.
    Вид битрейта : Постоянный
    Битрейт : 384 Кбит/сек
    Каналы : 6 каналов
    Расположение каналов : Front: L C R, Side: L R, LFE
    Частота : 48,0 КГц
    Частота кадров : 31,250 кадров/сек (1536 spf)
    Метод сжатия : С потерями
    Размер потока : 150 Мбайт (20%)
    Выравнивание : Разделение по промежуткам
    Продолжительность промежутка : 42 мс. (1,00 видеокадр)
    Время предзагрузки промежутка : 500 мс.



Игра престолов |Game of Thrones
«Победа или смерть»

Информация:
  • Год выпуска: 2014
  • Страна: США
  • Жанр: Фэнтези, драма, приключения, экранизация
  • Продолжительность серии: ~ 00:50:00
  • Перевод: Профессиональный (многоголосый закадровый) LostFilm


Режиссер: Дэвид Наттер

В ролях:
Питер Динклэйдж / Peter Dinklage (Tyrion Lannister), Лина Хиди / Lena Headey (Cersei Lannister), Эмилия Кларк / Emilia Clarke (Daenerys Targaryen), Кит Харингтон / Kit Harington (Jon Snow), Николай Костер-Вальдау / Nikolaj Coster-Waldau (Jaime Lannister), Мэйси Уильямс / Maisie Williams (Arya Stark), Софи Тернер / Sophie Turner (Sansa Stark), Айзек Хемпстед-Райт / Isaac Hempstead Wright (Bran Stark)


Описание:
Гражданская война в Семи королевствах подходит к концу. Один король сражен тенью собственного брата, другой убит на свадьбе, третий царит на море, но на суше он никто. Четвертый по воле Владыки Света отправился к границе, разделяющей мир живых и мертвецов. Пятый же — на Железном троне и готовится к свадьбе и союзу, который навсегда покончит с притязаниями на престол со стороны… Если только не окажутся правдой слухи о последней из рода Таргариенов, ее драконах, воинах-безупречных и их победах в каких-то далеких землях. Но зима уже на пороге, урожай погиб, а Иные пробудились: одичалые бегут от них к Стене, дозорные — за Стену, и только калека со своими спутниками направляются в самое сердце Севера.

Тех.данные:
Качество: BDRip
Формат: AVI
Видео кодек: XviD
Аудио кодек: AC3
Видео: 720x400 / 16:9 / 1500 kbps / 23.976 fps / 0.217 bit/pixel
  • Аудио Rus: AC3 | 48 KHz | 5.1 (Front: L С R Side: L R) + LFE | ~384 kbps/ |LostFilm|

    Общее
    Полное имя : E:\BT\Game of Thrones\Season 4\Game.of.Thrones.s04e01.XviD.BDrip.LostFilm.[qqss44].avi
    Формат : AVI
    Формат/Информация : Audio Video Interleave
    Размер файла : 788 Мбайт
    Продолжительность : 58 м.
    Общий поток : 1893 Кбит/сек
    Программа кодирования : VirtualDubMod 1.5.10.3 | www.virtualdub-fr.org || (build 2550/release)
    Библиотека кодирования : VirtualDubMod build 2550/release

    Видео
    Идентификатор : 0
    Формат : MPEG-4 Visual
    Профиль формата : Advanced Simple@L5
    Параметр BVOP формата : 2
    Параметр QPel формата : Нет
    Параметр GMC формата : Без точки перехода
    Параметр матрицы формата : Default (MPEG)
    Идентификатор кодека : XVID
    Идентификатор кодека/Подсказка : XviD
    Продолжительность : 58 м.
    Битрейт : 1500 Кбит/сек
    Ширина : 720 пикселей
    Высота : 400 пикселей
    Соотношение сторон : 16:9
    Частота кадров : 23,976 (23976/1000) кадра/сек
    Цветовое пространство : YUV
    Субдискретизация насыщенности : 4:2:0
    Битовая глубина : 8 бит
    Тип развёртки : Прогрессивная
    Метод сжатия : С потерями
    Бит/(Пиксели*Кадры) : 0.217
    Размер потока : 624 Мбайт (79%)
    Библиотека кодирования : XviD 73

    Аудио
    Идентификатор : 1
    Формат : AC-3
    Формат/Информация : Audio Coding 3
    Расширение режима : CM (complete main)
    Параметр Endianness формата : Big
    Идентификатор кодека : 2000
    Продолжительность : 58 м.
    Вид битрейта : Постоянный
    Битрейт : 384 Кбит/сек
    Каналы : 6 каналов
    Расположение каналов : Front: L C R, Side: L R, LFE
    Частота : 48,0 КГц
    Частота кадров : 31,250 кадров/сек (1536 spf)
    Метод сжатия : С потерями
    Размер потока : 160 Мбайт (20%)
    Выравнивание : Разделение по промежуткам
    Продолжительность промежутка : 42 мс. (1,00 видеокадр)
    Время предзагрузки промежутка : 500 мс.



Игра престолов |Game of Thrones
«Победа или смерть»

Информация:
  • Год выпуска: 2015
  • Страна: США
  • Жанр: Фэнтези, драма, приключения, экранизация
  • Продолжительность серии: ~ 00:50:00
  • Перевод: Профессиональный (многоголосый закадровый) LostFilm


Режиссер: Дэвид Наттер

В ролях:
Питер Динклэйдж / Peter Dinklage (Tyrion Lannister), Лина Хиди / Lena Headey (Cersei Lannister), Эмилия Кларк / Emilia Clarke (Daenerys Targaryen), Кит Харингтон / Kit Harington (Jon Snow), Николай Костер-Вальдау / Nikolaj Coster-Waldau (Jaime Lannister), Мэйси Уильямс / Maisie Williams (Arya Stark), Софи Тернер / Sophie Turner (Sansa Stark), Айзек Хемпстед-Райт / Isaac Hempstead Wright (Bran Stark)


Описание:
Гражданская война в Семи королевствах подходит к концу. Один король сражен тенью собственного брата, другой убит на свадьбе, третий царит на море, но на суше он никто. Четвертый по воле Владыки Света отправился к границе, разделяющей мир живых и мертвецов. Пятый же — на Железном троне и готовится к свадьбе и союзу, который навсегда покончит с притязаниями на престол со стороны… Если только не окажутся правдой слухи о последней из рода Таргариенов, ее драконах, воинах-безупречных и их победах в каких-то далеких землях. Но зима уже на пороге, урожай погиб, а Иные пробудились: одичалые бегут от них к Стене, дозорные — за Стену, и только калека со своими спутниками направляются в самое сердце Севера.

Тех.данные:
Качество: BDRip
Формат: AVI
Видео кодек: XviD
Аудио кодек: AC3
Видео: 720x400 / 16:9 / 1500 kbps / 23.976 fps / 0.217 bit/pixel
  • Аудио Rus: AC3 | 48 KHz | 5.1 (Front: L С R Side: L R) + LFE | ~384 kbps/ |LostFilm|

    Общее
    Полное имя : E:\BT\Game of Thrones\Season 5\Game.of.Thrones.s05e01.XviD.BDrip.LostFilm.[qqss44].avi
    Формат : AVI
    Формат/Информация : Audio Video Interleave
    Размер файла : 706 Мбайт
    Продолжительность : 52 м.
    Общий поток : 1891 Кбит/сек
    Программа кодирования : VirtualDubMod 1.5.10.3 | www.virtualdub-fr.org || (build 2550/release)
    Библиотека кодирования : VirtualDubMod build 2550/release

    Видео
    Идентификатор : 0
    Формат : MPEG-4 Visual
    Профиль формата : Advanced Simple@L5
    Параметр BVOP формата : 2
    Параметр QPel формата : Нет
    Параметр GMC формата : Без точки перехода
    Параметр матрицы формата : Default (MPEG)
    Идентификатор кодека : XVID
    Идентификатор кодека/Подсказка : XviD
    Продолжительность : 52 м.
    Битрейт : 1498 Кбит/сек
    Ширина : 720 пикселей
    Высота : 400 пикселей
    Соотношение сторон : 16:9
    Частота кадров : 23,976 (23976/1000) кадра/сек
    Цветовое пространство : YUV
    Субдискретизация насыщенности : 4:2:0
    Битовая глубина : 8 бит
    Тип развёртки : Прогрессивная
    Метод сжатия : С потерями
    Бит/(Пиксели*Кадры) : 0.217
    Размер потока : 559 Мбайт (79%)
    Библиотека кодирования : XviD 73

    Аудио
    Идентификатор : 1
    Формат : AC-3
    Формат/Информация : Audio Coding 3
    Расширение режима : CM (complete main)
    Параметр Endianness формата : Big
    Идентификатор кодека : 2000
    Продолжительность : 52 м.
    Вид битрейта : Постоянный
    Битрейт : 384 Кбит/сек
    Каналы : 6 каналов
    Расположение каналов : Front: L C R, Side: L R, LFE
    Частота : 48,0 КГц
    Частота кадров : 31,250 кадров/сек (1536 spf)
    Метод сжатия : С потерями
    Размер потока : 143 Мбайт (20%)
    Выравнивание : Разделение по промежуткам
    Продолжительность промежутка : 42 мс. (1,00 видеокадр)
    Время предзагрузки промежутка : 500 мс.



Игра престолов |Game of Thrones
«Победа или смерть»

Информация:
  • Год выпуска: 2016
  • Страна: США
  • Жанр: Фэнтези, драма, приключения, экранизация
  • Продолжительность серии: ~ 00:50:00
  • Перевод: Профессиональный (многоголосый закадровый) LostFilm


Режиссер: Дэвид Наттер

В ролях:
Питер Динклэйдж / Peter Dinklage (Tyrion Lannister), Лина Хиди / Lena Headey (Cersei Lannister), Эмилия Кларк / Emilia Clarke (Daenerys Targaryen), Кит Харингтон / Kit Harington (Jon Snow), Николай Костер-Вальдау / Nikolaj Coster-Waldau (Jaime Lannister), Мэйси Уильямс / Maisie Williams (Arya Stark), Софи Тернер / Sophie Turner (Sansa Stark), Айзек Хемпстед-Райт / Isaac Hempstead Wright (Bran Stark)


Описание:
Гражданская война в Семи королевствах подходит к концу. Один король сражен тенью собственного брата, другой убит на свадьбе, третий царит на море, но на суше он никто. Четвертый по воле Владыки Света отправился к границе, разделяющей мир живых и мертвецов. Пятый же — на Железном троне и готовится к свадьбе и союзу, который навсегда покончит с притязаниями на престол со стороны… Если только не окажутся правдой слухи о последней из рода Таргариенов, ее драконах, воинах-безупречных и их победах в каких-то далеких землях. Но зима уже на пороге, урожай погиб, а Иные пробудились: одичалые бегут от них к Стене, дозорные — за Стену, и только калека со своими спутниками направляются в самое сердце Севера.

Тех.данные:
Качество: BDRip
Формат: AVI
Видео кодек: XviD
Аудио кодек: AC3
Видео: 720x400 / 16:9 / 1500 kbps / 23.976 fps / 0.217 bit/pixel
  • Аудио Rus: AC3 | 48 KHz | 5.1 (Front: L С R Side: L R) + LFE | ~384 kbps/ |LostFilm|

    Полное имя : D:\Game of Thrones\Season 6\Game.of.Thrones.s06e01.XviD.BDrip.LostFilm.[qqss44].avi
    Формат : AVI
    Формат/Информация : Audio Video Interleave
    Размер файла : 678 Мбайт
    Продолжительность : 50 м. 4 с.
    Общий поток : 1893 Кбит/сек
    Программа кодирования : VirtualDubMod 1.5.10.3 | www.virtualdub-fr.org || (build 2550/release)
    Библиотека кодирования : VirtualDubMod build 2550/release

    Видео
    Идентификатор : 0
    Формат : MPEG-4 Visual
    Профиль формата : Advanced Simple@L5
    Настройки формата : BVOP2 / Custom Matrix
    Параметр BVOP формата : 2
    Параметр QPel формата : Нет
    Параметр GMC формата : Без точки перехода
    Параметр матрицы формата : Выборочная
    Идентификатор кодека : XVID
    Идентификатор кодека/Подсказка : XviD
    Продолжительность : 50 м. 4 с.
    Битрейт : 1500 Кбит/сек
    Ширина : 720 пикселей
    Высота : 400 пикселей
    Соотношение сторон : 16:9
    Частота кадров : 23,976 (24000/1001) кадра/сек
    Цветовое пространство : YUV
    Субдискретизация насыщенности : 4:2:0
    Битовая глубина : 8 бит
    Тип развёртки : Прогрессивная
    Метод сжатия : С потерями
    Бит/(Пиксели*Кадры) : 0.217
    Размер потока : 537 Мбайт (79%)
    Библиотека кодирования : XviD 73

    Аудио
    Идентификатор : 1
    Формат : AC-3
    Формат/Информация : Audio Coding 3
    Идентификатор кодека : 2000
    Продолжительность : 50 м. 4 с.
    Вид битрейта : Постоянный
    Битрейт : 384 Кбит/сек
    Каналы : 6 каналов
    Расположение каналов : Front: L C R, Side: L R, LFE
    Частота : 48,0 КГц
    Частота кадров : 31,250 кадров/сек (1536 SPF)
    Битовая глубина : 16 бит
    Метод сжатия : С потерями
    Размер потока : 138 Мбайт (20%)
    Выравнивание : Разделение по промежуткам
    Продолжительность промежутка : 42 мс. (1,00 видеокадр)
    Время предзагрузки промежутка : 500 мс.
    ServiceKind/String : Complete Main





Игра престолов |Game of Thrones
«Победа или смерть»

Информация:
  • Год выпуска: 2017
  • Страна: США
  • Жанр: Фэнтези, драма, приключения, экранизация
  • Продолжительность серии: ~ 00:50:00
  • Перевод: Профессиональный (многоголосый закадровый) LostFilm


Режиссер: Дэвид Наттер

В ролях:
Питер Динклэйдж / Peter Dinklage (Tyrion Lannister), Лина Хиди / Lena Headey (Cersei Lannister), Эмилия Кларк / Emilia Clarke (Daenerys Targaryen), Кит Харингтон / Kit Harington (Jon Snow), Николай Костер-Вальдау / Nikolaj Coster-Waldau (Jaime Lannister), Мэйси Уильямс / Maisie Williams (Arya Stark), Софи Тернер / Sophie Turner (Sansa Stark), Айзек Хемпстед-Райт / Isaac Hempstead Wright (Bran Stark)


Описание:
Гражданская война в Семи королевствах подходит к концу. Один король сражен тенью собственного брата, другой убит на свадьбе, третий царит на море, но на суше он никто. Четвертый по воле Владыки Света отправился к границе, разделяющей мир живых и мертвецов. Пятый же — на Железном троне и готовится к свадьбе и союзу, который навсегда покончит с притязаниями на престол со стороны… Если только не окажутся правдой слухи о последней из рода Таргариенов, ее драконах, воинах-безупречных и их победах в каких-то далеких землях. Но зима уже на пороге, урожай погиб, а Иные пробудились: одичалые бегут от них к Стене, дозорные — за Стену, и только калека со своими спутниками направляются в самое сердце Севера.

Тех.данные:
Качество: BDRip
Формат: AVI
Видео кодек: XviD
Аудио кодек: AC3
Видео: 720x400 / 16:9 / 1500 kbps / 23.976 fps / 0.217 bit/pixel
  • Аудио Rus: AC3 | 48 KHz | 5.1 (Front: L С R Side: L R) + LFE | ~384 kbps/ |LostFilm|

    Полное имя : D:\Game of Thrones\Season 7\Game.of.Thrones.s07e01.XviD.BDrip.LostFilm.[qqss44].avi
    Формат : AVI
    Формат/Информация : Audio Video Interleave
    Размер файла : 794 Мбайт
    Продолжительность : 58 м. 40 с.
    Общий поток : 1893 Кбит/сек
    Программа кодирования : VirtualDubMod 1.5.10.3 | www.virtualdub-fr.org || (build 2550/release)
    Библиотека кодирования : VirtualDubMod build 2550/release

    Видео
    Идентификатор : 0
    Формат : MPEG-4 Visual
    Профиль формата : Advanced Simple@L5
    Настройки формата : BVOP2 / Custom Matrix
    Параметр BVOP формата : 2
    Параметр QPel формата : Нет
    Параметр GMC формата : Без точки перехода
    Параметр матрицы формата : Выборочная
    Идентификатор кодека : XVID
    Идентификатор кодека/Подсказка : XviD
    Продолжительность : 58 м. 40 с.
    Битрейт : 1499 Кбит/сек
    Ширина : 720 пикселей
    Высота : 400 пикселей
    Соотношение сторон : 16:9
    Частота кадров : 23,976 (24000/1001) кадра/сек
    Цветовое пространство : YUV
    Субдискретизация насыщенности : 4:2:0
    Битовая глубина : 8 бит
    Тип развёртки : Прогрессивная
    Метод сжатия : С потерями
    Бит/(Пиксели*Кадры) : 0.217
    Размер потока : 629 Мбайт (79%)
    Библиотека кодирования : XviD 73

    Аудио
    Идентификатор : 1
    Формат : AC-3
    Формат/Информация : Audio Coding 3
    Идентификатор кодека : 2000
    Продолжительность : 58 м. 40 с.
    Вид битрейта : Постоянный
    Битрейт : 384 Кбит/сек
    Каналы : 6 каналов
    Расположение каналов : Front: L C R, Side: L R, LFE
    Частота : 48,0 КГц
    Частота кадров : 31,250 кадров/сек (1536 SPF)
    Битовая глубина : 16 бит
    Метод сжатия : С потерями
    Размер потока : 161 Мбайт (20%)
    Выравнивание : Разделение по промежуткам
    Продолжительность промежутка : 42 мс. (1,00 видеокадр)
    Время предзагрузки промежутка : 500 мс.
    ServiceKind/String : Complete Main





Игра престолов |Game of Thrones
«Победа или смерть»

Информация:
  • Год выпуска: 2019
  • Страна: США
  • Жанр: Фэнтези, драма, приключения, экранизация
  • Продолжительность серии: ~ 00:50:00
  • Перевод: Профессиональный (многоголосый закадровый) LostFilm


Режиссер: Дэвид Наттер

В ролях:
Питер Динклэйдж / Peter Dinklage (Tyrion Lannister), Лина Хиди / Lena Headey (Cersei Lannister), Эмилия Кларк / Emilia Clarke (Daenerys Targaryen), Кит Харингтон / Kit Harington (Jon Snow), Николай Костер-Вальдау / Nikolaj Coster-Waldau (Jaime Lannister), Мэйси Уильямс / Maisie Williams (Arya Stark), Софи Тернер / Sophie Turner (Sansa Stark), Айзек Хемпстед-Райт / Isaac Hempstead Wright (Bran Stark)


Описание:
Гражданская война в Семи королевствах подходит к концу. Один король сражен тенью собственного брата, другой убит на свадьбе, третий царит на море, но на суше он никто. Четвертый по воле Владыки Света отправился к границе, разделяющей мир живых и мертвецов. Пятый же — на Железном троне и готовится к свадьбе и союзу, который навсегда покончит с притязаниями на престол со стороны… Если только не окажутся правдой слухи о последней из рода Таргариенов, ее драконах, воинах-безупречных и их победах в каких-то далеких землях. Но зима уже на пороге, урожай погиб, а Иные пробудились: одичалые бегут от них к Стене, дозорные — за Стену, и только калека со своими спутниками направляются в самое сердце Севера.

Тех.данные:
Качество: WEB-DLRip
Формат: AVI
Видео кодек: XviD
Аудио кодек: AC3
Видео: 720x400 / 16:9 / 1500 kbps / 23.976 fps / 0.217 bit/pixel
  • Аудио Rus: AC3 | 48 KHz | 5.1 (Front: L С R Side: L R) + LFE | ~384 kbps/ |LostFilm|

    Полное имя : D:\Game of Thrones\Season 8\Game.of.Thrones.s08e01.XviD.WEB-DLRip.LostFilm.[qqss44].avi
    Формат : AVI
    Формат/Информация : Audio Video Interleave
    Размер файла : 755 Мбайт
    Продолжительность : 55 м. 45 с.
    Общий поток : 1893 Кбит/сек
    Программа кодирования : VirtualDubMod 1.5.10.3 | www.virtualdub-fr.org || (build 2550/release)
    Библиотека кодирования : VirtualDubMod build 2550/release

    Видео
    Идентификатор : 0
    Формат : MPEG-4 Visual
    Профиль формата : Advanced Simple@L5
    Настройки формата : BVOP2 / Custom Matrix
    Параметр BVOP формата : 2
    Параметр QPel формата : Нет
    Параметр GMC формата : Без точки перехода
    Параметр матрицы формата : Выборочная
    Идентификатор кодека : XVID
    Идентификатор кодека/Подсказка : XviD
    Продолжительность : 55 м. 45 с.
    Битрейт : 1500 Кбит/сек
    Ширина : 720 пикселей
    Высота : 400 пикселей
    Соотношение сторон : 16:9
    Частота кадров : 23,976 (24000/1001) кадра/сек
    Цветовое пространство : YUV
    Субдискретизация насыщенности : 4:2:0
    Битовая глубина : 8 бит
    Тип развёртки : Прогрессивная
    Метод сжатия : С потерями
    Бит/(Пиксели*Кадры) : 0.217
    Размер потока : 598 Мбайт (79%)
    Библиотека кодирования : XviD 73

    Аудио
    Идентификатор : 1
    Формат : AC-3
    Формат/Информация : Audio Coding 3
    Идентификатор кодека : 2000
    Продолжительность : 55 м. 45 с.
    Вид битрейта : Постоянный
    Битрейт : 384 Кбит/сек
    Каналы : 6 каналов
    Расположение каналов : Front: L C R, Side: L R, LFE
    Частота : 48,0 КГц
    Частота кадров : 31,250 кадров/сек (1536 SPF)
    Битовая глубина : 16 бит
    Метод сжатия : С потерями
    Размер потока : 153 Мбайт (20%)
    Выравнивание : Разделение по промежуткам
    Продолжительность промежутка : 42 мс. (1,00 видеокадр)
    Время предзагрузки промежутка : 500 мс.
    ServiceKind/String : Complete Main





ImDB / Кинопоиск
Сезон 1
      1.01 Зима близко / Winter Is Coming (08.09.2011)
      1.02 Королевский тракт / The Kingsroad (24.04.2011)
      1.03 Лорд Сноу / Lord Snow (01.05.2011)
      1.04 Калеки, бастарды и сломанные вещи / Cripples, Bastards, and Broken Things (08.05.2011)
      1.05 Волк и лев / The Wolf and the Lion (15.05.2011)
      1.06 Золотая корона / A Golden Crown (22.05.2011)
      1.07 Ты побеждаешь или погибаешь / You Win or You Die (29.05.2011)
      1.08 Острый конец / The Pointy End (05.06.2011)
      1.09 Бейелор / Baelor (12.06.2011)
      1.10 Пламя и кровь / Fire and Blood (19.06.2011)

Сезон 2
      2.01 Север помнит / The North Remembers (01.04.2012)
      2.02 Ночные земли / The Night Lands (08.04.2012)
      2.03 То, что мертво, умереть не может / What Is Dead May Never Die (15.04.2012)
      2.04 Сад костей / Garden of Bones (22.04.2012)
      2.05 Призрак Харренхола / The Ghost of Harrenhal (29.04.2012)
      2.06 Боги старые и новые / The Old Gods and the New (06.05.2012)
      2.07 Человек без чести / A Man Without Honor (13.05.2012)
      2.08 Принц Винтерфелла / The Prince of Winterfell (20.05.2012)
      2.09 Черноводная / Blackwater (27.05.2012)
      2.10 Валар Моргулис / Valar Morghulis (03.06.2012)

Сезон 3
      3.01 Валар Дохаэрис / Valar Dohaeris (31.03.2013)
      3.02 Чёрные крылья, чёрные вести / Dark Wings, Dark Words (07.04.2013)
      3.03 Стезя страданий / Walk of Punishment (14.04.2013)
      3.04 Теперь его дозор окончен / And Now His Watch Is Ended (21.04.2013)
      3.05 Поцелованная огнём / Kissed by Fire (28.04.2013)
      3.06 Подъём / The Climb (05.05.2013)
      3.07 Медведь и прекрасная дева / The Bear and the Maiden Fair (12.05.2013)
      3.08 Младшие Сыны / Second Sons (19.05.2013)
      3.09 Рейны из Кастамере / The Rains of Castamere (02.06.2013)
      3.10 Миса / Mhysa (09.06.2013)

Сезон 4
      4.01 Два меча / Two Swords (06.04.2014)
      4.02 Лев и Роза / The Lion and the Rose (13.04.2014)
      4.03 Разрушительница оков / Breaker of Chains (20.04.2014)
      4.04 Верный клятве / Oathkeeper (27.04.2014)
      4.05 Первый этого имени / First of His Name (04.05.2014)
      4.06 Законы богов и людей / The Laws of Gods and Men (11.05.2014)
      4.07 Пересмешник / Mockingbird (18.05.2014)
      4.08 Гора и Змей / The Mountain and the Viper (01.06.2014)
      4.09 Дозорные на Стене / The Watchers on the Wall (08.06.2014)
      4.10 Дети / The Children (15.06.2014)

Сезон 5
      5.01 Грядущие войны / The Wars to Come (12.04.2015)
      5.02 Чёрно-белый дом / The House of Black and White (19.04.2015)
      5.03 Его Воробейшество / High Sparrow (26.04.2015)
      5.04 Сыны Гарпии / Sons of the Harpy (03.05.2015)
      5.05 Убей мальчишку / Kill the Boy (10.05.2015)
      5.06 Непреклонные, несгибаемые, несдающиеся / Unbowed, Unbent, Unbroken (17.05.2015)
      5.07 Дар / The Gift (24.05.2015)
      5.08 Суровый дом / Hardhome (31.05.2015)
      5.09 Танец драконов / The Dance of Dragons (07.06.2015)
      5.10 Милосердие матери / Mother's Mercy (14.06.2015)

Сезон 6

      6.01 «Красная Женщина» (24.04.2016)
      6.02 «Дом» (01.05.2016)
      6.03 «Клятвопреступник» (08.05.2016)
      6.04 «Книга Неведомого» (15.05.2016)
      6.05 «Дверь» (22.05.2016)
      6.06 «Кровь моей крови» (29.05.2016)
      6.07 «Сломленный человек» (05.06.2016)
      6.08 «Никто» (12.06.2016)
      6.09 «Битва Бастардов» (19.06.2016)
      6.10 «Ветра зимы» (26.06.2016)
Сезон 7

      7.01 «Драконий Камень» (17.07.2017)
      7.02 «Бурерождённая» (24.07.2017)
      7.03 «Правосудие королевы» (31.07.2017)
      7.04 «Военные трофеи» (07.08.2017)
      7.05 «Восточный Дозор» (14.08.2017)
      7.06 «За Стеной» (21.08.2017)
      7.07 «Дракон и Волк» (28.08.2017)
Сезон 8

      8.01 «Винтерфелл» (14 апреля 2019)
      8.02 «Рыцарь Семи Королевств» (21 апреля 2019)
      8.03 «Долгая ночь» (28 апреля 2019)
      8.04 «Последние из Старков» (5 мая 2019)
      8.05 «Колокола» (12 мая 2019)
      8.06 «Железный Трон» (19 мая 2019)

[28/05/19] Финал! Обновите торрент-файл.


Раздача ведётся путём добавления новых серий; при каждом добавлении создаётся новый торрент. Чтобы начать докачку новой серии, пользователям необходимо сделать следующее:
1. Остановить скачивание.
2. Удалить старый торрент у себя из клиента (старые серии удалять не надо).
3. Скачать новый торрент и запустить его у себя в клиенте вместо старого, при этом указать клиенту путь в старую папку куда и должно происходить скачивание новых серий.
4. Ваш клиент при этом должен произвести хеширование (проверку) старой папки (если не производит сам - помогите ему сделать это), и будет докачивать только те серии которых у вас ещё нет. Старые серии при этом не удаляются, а продолжают раздаваться!
5. Eсли вы уже удалили старые серии, то предотвратить повторную закачку старых серий можно, отжав галочку в соответствующих местах при запуске нового торрента.
★ Сериал снят по мотивам серии романов Джорджа Р. Р. Мартина «Песнь Льда и Огня» (A Song of Ice and Fire, 1996 — н. в.).
★ В цикле Джорджа Р. Р. Мартина «Песнь Льда и Огня» Арья Старк — левша. Правша Мэйси Уильямс, исполняющая роль Арьи в экранизации, ради достоверности образа научилась полноценно пользоваться левой рукой.
★ Роль Кэйтилин Старк могла сыграть Джиллиан Андерсон.
★ Съёмки пилотного эпизода заняли почти месяц с 24 октября 2009 года по 19 ноября 2009 года.
★ Вскоре после окончания съёмок пилотной серии стало известно, что актрису Дженнифер Или (роль Кейтилин Старк) заменит Мишель Фэйрли, кроме того, исполнительницу одной из ключевых ролей Дейенерис Таргариен молодую актрису Тэмзин Мёрчант также заменили Эмилией Кларк. Это потребовало повторной съемки части сцен, включая пролог, при этом из-за накладок в расписании не все актеры пилотного эпизода смогли вернуться к пересъемкам, что потребовало замену актеров для еще трех персонажей. Режиссёр первого варианта пилотной серии сериала, Томас Маккарти, также не смог вернуться к повторным съемкам и был заменен, его имя не упоминается в титрах.
★ Основные съемки первого сезона проходили в студии Зал Краски (Paint Hall Studio) в Белфасте, Северная Ирландия, а также на Мальте (вместо планируемого первоначально Марокко). На Мальте съемки проходили в городах Мдина и Валлетта.
★ Эддарда Старка могли сыграть Лиам Нисон, Джерард Батлер, Вигго Мортенсен и Сэм Нил, но Дэвид Бениофф, Д. Б. Уайсс и Джордж Р. Р. Мартин сошлись на том, что Владыку Севера должен сыграть Шон Бин.
★ На роль Давоса Сиворта рассматривались Тим Рот и Дэвид Тьюлис.
★ Туннель, через который выезжают разведчики Ночного Дозора, на самом деле прорыт в склоне холма в каменоломне, где снимался Черный Замок. Стены у него из цемента.
★ Для сцены с обедом в трапезной Черного Замка сварили настолько неприятного вида кашу, что актер, игравший Пипа, отказался ее есть, а актер, игравший Гренна, в кадре пытается ее проглотить и не может.
★ Сериал содержит диалоги на искусственных языках, иностранных для Вестероса, — дотракийском и валирийском. Для их разработки компания HBO наняла лингвиста, который создал для каждого языка собственные словари, произношение и грамматическую структуру.
★ По словам создателей шоу Дэвида Бениоффа и Д. Б. Уайсса, автор книг-первоисточников Джордж Р. Р. Мартин сообщил им о концовке романов, и они видят полный сериал в виде восьми сезонов.
★ Эмилия Кларк не красила волосы для своей роли, а носила парик.
★ Производственный бюджет самой дорогостоящей серии — «Blackwater», в которой была показана битва на Черноводной — составил 8 миллионов долларов США.
★ Съёмки южных сцен второго сезона вместо Мальты проходили в городе Дубровник, Хорватия, и на соседнем острове Локрум. Сцены на Кулаке Первых Людей и в Клыках Мороза снимались в ноябре 2011 года в Исландии.
★ После завершения первого сезона, семья Софи Тернер приютила Зунни, собаку, которая играла волчицу Сансы Старк — Леди.
★ На самом деле Софи Тернер блондинка. Ей пришлось перекраситься в рыжий цвет для роли Сансы Старк.
★ Сцена, в которой Серсея разговаривает с Недом в башне Десницы, была отснята на съемках сериала самой первой.
★ В июне 2012 года в интернете получили распространение кадры из 10 эпизода, на которых одна из отрубленных голов напоминает лицом 43-го президента США Джорджа Буша мл. HBO отреагировало на скандал извинениями, объявив, что сцену с отрубленными головами отредактируют при выпуске на DVD. Как пояснил продюсер Дэвид Бениофф, создатели просто использовали те искусственные головы, которые могли достать поблизости.

Золотой глобус, 2015 год
Номинации (1):
★Лучший драматический сериал
Жорж, 2015 год
Номинации (1):
★Лучший зарубежный сериал (драма)
Премия Гильдии актеров, 2015 год
Победитель (1):
★Лучший каскадерский состав в телевизионном сериале
Номинации (2):
★Лучший актер драматического сериала(Питер Динклэйдж)
★Лучший актерский состав драматического сериала
Жорж, 2014 год
Победитель (1):
★Лучший зарубежный сериал (драма)
Сатурн, 2014 год
Номинации (5):
★Лучший молодой актер/актриса в телесериале(Джек Глисон)
★Лучший актер второго плана в телесериале(Николай Костер-Вальдау)
★Лучшая актриса второго плана в телесериале(Гвендолин Кристи)
★Лучшая актриса второго плана в телесериале(Мишель Фэйрли)
★Лучшая телепостановка
Эмми, 2014 год
Номинации (4):
★Лучший драматический сериал
★Лучшая мужская роль второго плана в драматическом сериале(Питер Динклэйдж)
★Лучшая женская роль второго плана в драматическом сериале(Лина Хиди)
★Лучшая приглашенная актриса в драматическом сериале(Дайана Ригг)
Премия Гильдии актеров, 2014 год
Победитель (1):
★Лучший каскадерский состав в телевизионном сериале
Номинации (2):
★Лучший актер драматического сериала(Питер Динклэйдж)
★Лучший актерский состав драматического сериала
Сатурн, 2013 год
Номинации (1):
★Лучшая телепостановка
Эмми, 2013 год
Номинации (4):
★Лучшая приглашенная актриса в драматическом сериале(Дайана Ригг) – «For playing Lady Olenna Tyrell»
★Лучшая мужская роль второго плана в драматическом сериале(Питер Динклэйдж) – «For playing Tyrion Lannister»
★Лучшая женская роль второго плана в драматическом сериале(Эмилия Кларк) – «For playing Daenerys Targaryen»
★Лучший драматический сериал
Премия Гильдии актеров, 2013 год
Победитель (1):
★Лучший каскадерский состав в телевизионном сериале
Золотой глобус, 2012 год
Победитель (1):
★Лучший актёр второго плана мини-сериала или фильма на ТВ(Питер Динклэйдж)
Номинации (1):
★Лучший драматический сериал
Сатурн, 2012 год
Номинации (4):
★Лучший телеактер(Шон Бин)
★Лучшая телеактриса(Лина Хиди)
★Лучший телеактер второго плана(Кит Харингтон)
★Лучшая телепостановка
Эмми, 2012 год
Номинации (2):
★Лучший драматический сериал
★Лучшая мужская роль второго плана в драматическом сериале(Питер Динклэйдж)
Премия Гильдии актеров, 2012 год
Победитель (1):
★Лучший каскадерский состав в телевизионном сериале
Номинации (1):
★Лучший актерский состав драматического сериала
Эмми, 2011 год
Победитель (2):
★Лучшая мужская роль второго плана в драматическом сериале(Питер Динклэйдж)
★Лучшие вступительные титры
Номинации (1):
★Лучший драматический сериал


pb.wtf



Скачать Игра Престолов через торрент http://pic1.kartinco.top/images/10/giw1q.jpg Скачать фильм Игра Престолов через торрент бесплантно в хорошем качестве Описание: Гражданская война в Семи королевствах подходит к концу. Один король сражен тенью собственного брата, другой убит на свадьбе, ... 9.7 10 105
Info! Золотая раздача, скачанное не засчитывается.
Торрент: Зарегистрирован [2019-05-28 08:45] · скачан: 251 раз
Статус: √ проверено
Размер: 55.77 GB
Как cкачать? Как скачать Игра Престолов через торрент | qTorrent

% Раздел Тема Автор DL S | L
Игра престолов [ 109.58 GB ] Игра престолов / Game of Thrones / Сезон: 1-8 из 8 / Серии: 1-73 из 73 [2011-2019 HEVC BDRip 1080p WEB-DLRip 1080p] 2xDUB [РЕН-ТВ Амедиа] sheker187 Скачать
35 | 114
Игра престолов [ 322.59 GB ] Игра престолов / Game of Thrones / Сезон: 1-8 из 8 / Серии: 1-73 из 73 [2011-2019 BDRip 1080p WEB-DLRip 1080p] MVO [LostFilm] sheker187 Скачать
2 | 9
Игра престолов [ 72 GB ] Игра престолов / Game of Thrones / Сезон: 1-8 из 8 / Серии: 1-73 из 73 [2011-2018 BDRip] MVO [AlexFilm] bober100 Скачать
5 | 3


Последний раз редактировалось: God_Slayer (2019-05-28 08:45), всего редактировалось 8 раз(а)


>> Регистрируемся здесь <<






Отзывы и комментарии о схеме читаем и пишем здесь: ---> Отзывы и комментарии о схеме

Новые благодарочки в телеграм довольных пользователей:
скриншот   скриншот   скриншот   скриншот   скриншот

07-08-2016 19:33 Игра Престолов Скачать торрент  

ех.если бы такой же но только от Амедии.....pb.wtf



08-08-2016 12:54 Игра Престолов Скачать торрент  

С цензурой, без?pb.wtf



08-08-2016 14:34 Игра Престолов Скачать торрент  

NoobSmoke писал(а):

paha222 писал(а):

С цензурой, без?

+1



pb.wtf



08-08-2016 19:14 Игра Престолов Скачать торрент  

Откровенные сексуальные сцены есть, а вот насчёт ненормативной лексики, возможно она есть, лост всегда в завуалированной форме такие слова озвучивает.pb.wtf



20-09-2016 22:54 Игра Престолов Скачать торрент  

Спасибо pb.wtf



25-12-2016 19:50 Игра Престолов Скачать торрент  

vasya1444 писал(а):
как сериал

лучший сериал всех времен и народов
Поддерживаю полностью!pb.wtf



30-07-2017 20:20 Игра Престолов Скачать торрент  

ну что ж, начнем смотреть, раз толстый решил не писать больше книжекpb.wtf



27-04-2019 13:42 Игра Престолов Скачать торрент  

Фильмак конечно же огонь.но финальный уже конечно же жальpb.wtf



05-05-2019 12:38 Игра Престолов Скачать торрент  

где узнать, когда будет в 4к ??pb.wtf



17-05-2019 00:55 Игра Престолов Скачать торрент  

народ, а когда будет тут 5 серия?pb.wtf



20-05-2019 17:11 Игра Престолов Скачать торрент  

Когда пятую и шестую ожидать ?pb.wtf



28-05-2019 08:46 Игра Престолов Скачать торрент  

Финальные серии добавлены!pb.wtf



29-05-2019 12:05 Игра Престолов Скачать торрент  

Самый плохой сезон
Жальpb.wtf



    Дорогой пользователь! Огромная просьба, поблагодарите релизера, оцените раздачу и оставьте свои комментарий, если Вы скачали Игра Престолов через торрент бесплатно! Внесите свою лепту в развитие PiratBit!
    Комментировать посты могут только пользователи прошедшие не сложную регистрацию
    Показать сообщения:    

    Игра Престолов через торрент
    Скачать бесплатно Игра Престолов
    Игра Престолов скачать торрент
    Игра Престолов смотреть онлайн
    Cкачать фильм Игра Престолов бесплатно
    Игра Престолов скачать торрент в хорошем качестве
    Игра Престолов смотреть онлайн бесплатно в хорошем качестве


    Вы не можете начинать темы
    Вы не можете отвечать на сообщения
    Вы не можете редактировать свои сообщения
    Вы не можете удалять свои сообщения
    Вы не можете голосовать в опросах
    Вы не можете прикреплять файлы к сообщениям
    Вы можете скачивать файлы