Ссылка на приватное зеркало нашего сайта всего за 1$. Внимание количество ограничено!!!

2 сезон

iTunes

1 сезон

1

iTunes

iTunes

iTunes

1 сезон

RePack

30

ИГРА 18+

pack

ВАЖНО

!!Акция!!

Alien_RageХит недели

RePack

MK11
pack

Забери бонус

RePack

jed

!!Акция!!

Alien_Rage

RePack

fifa19

RePack

Assassins Creed: Odyssey

RePack

NEED FOR SPEED™ PAYBACK

4 сезон

9 сезон

Бесстыжие 9 сезон

Все сериалы

все сериалы на PB.wtf

RePack

FAR CRY 5
  

С унынием в лице / Blue in the Face (Пол Остер, Уэйн Ван, Харви Ванг) [1995, комедия, BDRip 720p by msltel] MVO, 2 x AVO pb.wtf

С унынием в лице через торрент pb.wtf

Размер: 3.73 GB | Добавлен: 4 года 2 мес. назад | Торрент скачан:16 раз
Скачать  

08-08-2016 08:14 С унынием в лице Скачать торрент  

Название: С унынием в лице
Оригинальное название: Blue in the Face
Год выпуска: 1995
Страна: США
Жанр: комедия
Продолжительность: 01:23:35
Перевод: профессиональный многоголосый, авторский

Режиссёр: Пол Остер, Уэйн Ван, Харви Ванг

В ролях: Харви Кейтель, Мира Сорвино, Джим Джармуш, Лу Рид, Майкл Дж. Фокс, Джанкарло Эспозито, Джон Лури, РуПол, Мадонна, Розанна Барр, Мэл Горхэм, Лили Томлин, Джаред Харрис, Мэлик Йоба, Хосе Суньига, Виктор Арго, Стивен Геведон, Кит Дэвид, Пегги Гормли, Чиф Бей, Йен Фрэзиер, Роберт Джексон, Люк Санте, Челси Олтмэн, Майкл Бадалукко, Теодорина Белло, Билли Черри, Мишель Херст, Эдмунд Икеда, Ахмед Бен Ларби, Уильям Престон, Дебра Уилсон, Диана Браунстоун, Лиз Кертис, Джеймс Диксон, Эстебан Фернандез, Эйлин Галиндо, Коттон Грин, Кайл Ларсен, Лиз Рамос, Рэй Родригез, Чарльз ЛаСалль, Лиза Скарола, Дэйл Стоттс

Описание: Мы видим Огги, философа по мироощушению, торгующего табаком. Он всё там же и, наверняка, всё также снимает угол улиц, где находится его магазинчик. На этот раз вереница персонажей, проходящих через это место, многочисленней и разнообразней. Многие из них говорят о себе и о Бруклине прямо в камеру. Других мы узнаём по их диалогам, поступкам, рассказам, снятым достаточно документально. Нужно очень любить этот город, чтобы снять такое кино, не связанное сюжетом. Это картинки, сценки, кусочки из жизни — маленькие осколки мозаики, из которых наше воображение складывает общую картину, а память позволяет, как будто, увидеть эту картину издалека...



Качество: BDRip 720p Сравнение с исходником
Формат: MKV
Видео: MPEG-4 AVC, 5368 Кбит/с, 1280x694, 23,976 кадра/с
Аудио 1: русский, AC3, 192 kbps, 2 ch, 48 kHz [профессиональный многоголосый]
Аудио 2: русский, AC3, 192 kbps, 2 ch, 48 kHz [авторский, Антон Алексеев]
Аудио 3: русский, AC3, 192 kbps, 2 ch, 48 kHz [авторский, Павел Санаев]
Аудио 4: английский, AC3, 448 kbps, 2 ch, 48 kHz [оригинал]
Общее
Уникальный идентификатор : 238377376236235875853346420405391653301 (0xB355D00CD4B1226DB6BB2C634E64F9B5)
Полное имя : D:\Video\С унынием в лице.1995.BDRip.720p.mkv
Формат : Matroska
Версия формата : Version 4 / Version 2
Размер файла : 3,73 Гбайт
Продолжительность : 1 ч. 23 м.
Общий поток : 6393 Кбит/сек
Дата кодирования : UTC 2016-08-08 03:28:23
Программа кодирования : mkvmerge v8.2.0 ('World of Adventure') 64bit
Библиотека кодирования : libebml v1.3.1 + libmatroska v1.4.2

Видео
Идентификатор : 1
Формат : AVC
Формат/Информация : Advanced Video Codec
Профиль формата : High@L4.1
Параметр CABAC формата : Да
Параметр ReFrames формата : 9 кадров
Идентификатор кодека : V_MPEG4/ISO/AVC
Продолжительность : 1 ч. 23 м.
Битрейт : 5368 Кбит/сек
Ширина : 1280 пикселей
Высота : 694 пикселя
Соотношение сторон : 1,85:1
Режим частоты кадров : Постоянный
Частота кадров : 23,976 (24000/1001) кадра/сек
Цветовое пространство : YUV
Субдискретизация насыщенности : 4:2:0
Битовая глубина : 8 бит
Тип развёртки : Прогрессивная
Бит/(Пиксели*Кадры) : 0.252
Размер потока : 3,13 Гбайт (84%)
Библиотека кодирования : x264 core 146 r2538 121396c
Настройки программы : cabac=1 / ref=9 / deblock=1:-3:-3 / analyse=0x3:0x113 / me=umh / subme=10 / psy=1 / psy_rd=1.00:0.15 / mixed_ref=1 / me_range=32 / chroma_me=1 / trellis=2 / 8x8dct=1 / cqm=0 / deadzone=21,11 / fast_pskip=1 / chroma_qp_offset=-3 / threads=6 / lookahead_threads=1 / sliced_threads=0 / nr=0 / decimate=1 / interlaced=0 / bluray_compat=0 / constrained_intra=0 / bframes=11 / b_pyramid=2 / b_adapt=2 / b_bias=0 / direct=1 / weightb=1 / open_gop=0 / weightp=2 / keyint=230 / keyint_min=23 / scenecut=40 / intra_refresh=0 / rc_lookahead=40 / rc=crf / mbtree=0 / crf=17.0 / qcomp=0.60 / qpmin=0 / qpmax=69 / qpstep=4 / vbv_maxrate=40000 / vbv_bufsize=50000 / crf_max=0.0 / nal_hrd=none / filler=0 / ip_ratio=1.40 / pb_ratio=1.30 / aq=1:1.00
Язык : English
Default : Да
Forced : Нет

Аудио #1
Идентификатор : 2
Формат : AC-3
Формат/Информация : Audio Coding 3
Расширение режима : CM (complete main)
Параметр Endianness формата : Big
Идентификатор кодека : A_AC3
Продолжительность : 1 ч. 23 м.
Вид битрейта : Постоянный
Битрейт : 192 Кбит/сек
Каналы : 2 канала
Расположение каналов : Front: L R
Частота : 48,0 КГц
Частота кадров : 31,250 кадров/сек (1536 spf)
Метод сжатия : С потерями
Размер потока : 114 Мбайт (3%)
Заголовок : MVO
Язык : Russian
Default : Да
Forced : Нет

Аудио #2
Идентификатор : 3
Формат : AC-3
Формат/Информация : Audio Coding 3
Расширение режима : CM (complete main)
Параметр Endianness формата : Big
Идентификатор кодека : A_AC3
Продолжительность : 1 ч. 23 м.
Вид битрейта : Постоянный
Битрейт : 192 Кбит/сек
Каналы : 2 канала
Расположение каналов : Front: L R
Частота : 48,0 КГц
Частота кадров : 31,250 кадров/сек (1536 spf)
Метод сжатия : С потерями
Размер потока : 114 Мбайт (3%)
Заголовок : AVO (Антон Алексеев)
Язык : Russian
Default : Нет
Forced : Нет

Аудио #3
Идентификатор : 4
Формат : AC-3
Формат/Информация : Audio Coding 3
Расширение режима : CM (complete main)
Параметр Endianness формата : Big
Идентификатор кодека : A_AC3
Продолжительность : 1 ч. 23 м.
Вид битрейта : Постоянный
Битрейт : 192 Кбит/сек
Каналы : 2 канала
Расположение каналов : Front: L R
Частота : 48,0 КГц
Частота кадров : 31,250 кадров/сек (1536 spf)
Метод сжатия : С потерями
Размер потока : 114 Мбайт (3%)
Заголовок : AVO (Павел Санаев)
Язык : Russian
Default : Нет
Forced : Нет

Аудио #4
Идентификатор : 5
Формат : AC-3
Формат/Информация : Audio Coding 3
Расширение режима : CM (complete main)
Параметр Endianness формата : Big
Идентификатор кодека : A_AC3
Продолжительность : 1 ч. 23 м.
Вид битрейта : Постоянный
Битрейт : 448 Кбит/сек
Каналы : 2 канала
Расположение каналов : Front: L R
Частота : 48,0 КГц
Частота кадров : 31,250 кадров/сек (1536 spf)
Метод сжатия : С потерями
Размер потока : 268 Мбайт (7%)
Заголовок : original
Язык : English
Default : Нет
Forced : Нет
pb.wtf



Скачать С унынием в лице через торрент http://s009.radikal.ru/i309/1608/64/73c2850817cc.jpg Скачать фильм С унынием в лице через торрент бесплантно в хорошем качестве Описание: Мы видим Огги, философа по мироощушению, торгующего табаком. Он всё там же и, наверняка, всё также снимает угол улиц, где ... 10 10 3
Info! Золотая раздача, скачанное не засчитывается.
Торрент: Зарегистрирован [2016-08-08 08:14] · скачан: 16 раз
Статус: √ проверено
Размер: 3.73 GB
Как cкачать? Как скачать С унынием в лице через торрент | qTorrent

% Раздел Тема Автор DL S | L
Фильмы [HD 720p, 1080p] (Хороший звук DUB, MVO) [ 10.65 GB ] С унынием в лице / Blue in the Face [1995 BDRip 1080p by msltel] MVO 2 x AVO msltel Скачать
1 | 0

28-11-2019 20:33  

Отключить всю рекламу на сайте

12-08-2016 08:05 С унынием в лице Скачать торрент  

Кто смотрел, смотреть можно?pb.wtf



    Дорогой пользователь! Огромная просьба, поблагодарите релизера, оцените раздачу и оставьте свои комментарий, если Вы скачали С унынием в лице через торрент бесплатно! Внесите свою лепту в развитие PiratBit!
    Комментировать посты могут только пользователи прошедшие не сложную регистрацию
    Показать сообщения:    

    С унынием в лице через торрент
    Скачать бесплатно С унынием в лице
    С унынием в лице скачать торрент
    С унынием в лице смотреть онлайн
    Cкачать фильм С унынием в лице бесплатно
    С унынием в лице скачать торрент в хорошем качестве
    С унынием в лице смотреть онлайн бесплатно в хорошем качестве


    Вы не можете начинать темы
    Вы не можете отвечать на сообщения
    Вы не можете редактировать свои сообщения
    Вы не можете удалять свои сообщения
    Вы не можете голосовать в опросах
    Вы не можете прикреплять файлы к сообщениям
    Вы можете скачивать файлы