новый адрес
Мега распродажа FORZA HORIZON 4 ULTIMATE+ВСЕ DLC+ОНЛАЙН всего за 499р. 349 руб. (супер цена). Внимание количество ограничено!!!

iTunes

1+1

iTunes

мы

iTunes

1

iTunes

Чернобыль

iTunes

Ральф против интернета

Лицензия

ПШазам

Лицензия

Оно 2

Лицензия

30
pack

ВАЖНО

!!Акция!!

Alien_RageХит недели

RePack

Resident Evil 21

ИГРА 18+

pack

RePack

jed

!!Акция!!

Alien_Rage

RePack

fifa19

RePack

Assassins Creed: Odyssey

RePack

NEED FOR SPEED™ PAYBACK

3 сезон

9 сезон

Бесстыжие 9 сезон

Все сериалы

все сериалы на PB.wtf

RePack

FAR CRY 5
Ребята, катастрофически не хватает 1900р. для оплаты серверов за Октябрь (всвязи с блокировками трафик упал в 3 раза), 1-2р., выручайте.
  

Шарф любимой (Евгений Иванов-Барков, Зиновия Маркина) [1955, СССР, комедия, SATRip от AVP Studio] pb.wtf

Шарф любимой через торрент pb.wtf

Размер: 744 MB | Добавлен: 3 года 3 мес. назад | Торрент скачан:14 раз
Скачать  

08-08-2016 09:15 Шарф любимой Скачать торрент  

Шарф любимой
Страна: СССР
Производство: Одесская киностудия

Жанр: комедия
Год выпуска: 1955
Продолжительность: 01:23:11

Перевод: Не требуется
Cубтитры: нет
Оригинальная аудиодорожка: русский

Режиссер: Евгений Иванов-Барков, Зиновия Маркина

В ролях:
Тамара Кокова, Елена Муратова, Нодар Шашик-оглы, Хусейн Товкуев, Николай Волков (старший), Варвара Каргинова, Али Тухужев, Азрет Тхазаплижев, Мухамед Тубаев...
Полный список актёров

Описание:
В одном из колхозов Кабарды группа молодежи во главе с джигитом Эльдаром Абуковым организует конно-спортивный клуб. Но Исмель Шарданов смеется над научной системой тренировок своего друга Эльдара. Тогда Эльдар вызывает его на соревнование. Победитель должен получить "шарф любимой" - традиционный приз таких состязаний...

Источник: DVB
Качество видео: SATRip
Формат видео: AVI

Видео: 640x480 (4:3), 25 fps, XviD ~ 1113 kbps avg, 0.145 bit/pixel
Аудио: 48 kHz, MP3 2.0, 128 kbps

Раздача от:
Общее
Полное имя : Sharf.lyubimoy.1955.DVDRip-745_[New-team]_by_AVP_Studio.avi
Формат : AVI
Формат/Информация : Audio Video Interleave
Размер файла : 744 Мбайт
Продолжительность : 1 ч. 23 м.
Общий поток : 1251 Кбит/сек
Программа кодирования : VirtualDubModRus 1.5.10.2 (build 2542/release)
Библиотека кодирования : VirtualDubMod build 2542/release

Видео
Идентификатор : 0
Формат : MPEG-4 Visual
Профиль формата : Advanced Simple@L5
Параметр BVOP формата : 1
Параметр QPel формата : Нет
Параметр GMC формата : Без точки перехода
Параметр матрицы формата : Выборочная
Идентификатор кодека : XVID
Идентификатор кодека/Подсказка : XviD
Продолжительность : 1 ч. 23 м.
Битрейт : 1113 Кбит/сек
Ширина : 640 пикселей
Высота : 480 пикселей
Соотношение сторон : 4:3
Частота кадров : 25,000 кадров/сек
Цветовое пространство : YUV
Субдискретизация насыщенности : 4:2:0
Битовая глубина : 8 бит
Тип развёртки : Прогрессивная
Метод сжатия : С потерями
Бит/(Пиксели*Кадры) : 0.145
Размер потока : 662 Мбайт (89%)
Библиотека кодирования : XviD 1.2.1 (UTC 2008-12-04)

Аудио
Идентификатор : 1
Формат : MPEG Audio
Версия формата : Version 1
Профиль формата : Layer 3
Идентификатор кодека : 55
Идентификатор кодека/Подсказка : MP3
Продолжительность : 1 ч. 23 м.
Вид битрейта : Постоянный
Битрейт : 128 Кбит/сек
Каналы : 2 канала
Частота : 48,0 КГц
Метод сжатия : С потерями
Размер потока : 76,2 Мбайт (10%)
Выравнивание : Соединение по промежуткам
Продолжительность промежутка : 40 мс. (1,00 видеокадр)
Время предзагрузки промежутка : 504 м
pb.wtf



Скачать Шарф любимой через торрент http://s011.radikal.ru/i315/1608/29/2f976142d051.png Скачать фильм Шарф любимой через торрент бесплантно в хорошем качестве Описание:В одном из колхозов Кабарды группа молодежи во главе с джигитом Эльдаром Абуковым организует конно-спортивный клуб. Но Исмель ... 5 10 1
Info! Золотая раздача, скачанное не засчитывается.
Торрент: Зарегистрирован [2016-08-08 09:15] · скачан: 14 раз
Статус: √ проверено
Размер: 744 MB
Как cкачать? Как скачать Шарф любимой через торрент | qTorrent

% Раздел Тема Автор DL S | L
Кино СССР [ 1.09 GB ] Шарф любимой [1955 СССР SATRip-AVC от AVP Studio] AVP Studio Скачать
1 | 0
Кино СССР [ 1.09 GB ] Шарф любимой [1955 СССР SATRip от AVP Studio] AVP Studio Скачать
1 | 0


>> Регистрируемся здесь <<






Отзывы и комментарии о схеме читаем и пишем здесь: ---> Отзывы и комментарии о схеме

Новые благодарочки в телеграм довольных пользователей:
скриншот   скриншот   скриншот   скриншот   скриншот
    Дорогой пользователь! Огромная просьба, поблагодарите релизера, оцените раздачу и оставьте свои комментарий, если Вы скачали Шарф любимой через торрент бесплатно! Внесите свою лепту в развитие PiratBit!
    Комментировать посты могут только пользователи прошедшие не сложную регистрацию
    Показать сообщения:    

    Шарф любимой через торрент
    Скачать бесплатно Шарф любимой
    Шарф любимой скачать торрент
    Шарф любимой смотреть онлайн
    Cкачать фильм Шарф любимой бесплатно
    Шарф любимой скачать торрент в хорошем качестве
    Шарф любимой смотреть онлайн бесплатно в хорошем качестве


    Вы не можете начинать темы
    Вы не можете отвечать на сообщения
    Вы не можете редактировать свои сообщения
    Вы не можете удалять свои сообщения
    Вы не можете голосовать в опросах
    Вы не можете прикреплять файлы к сообщениям
    Вы можете скачивать файлы