новый адрес
Мега распродажа FORZA HORIZON 4 ULTIMATE+ВСЕ DLC+ОНЛАЙН всего за 499р. 349 руб. (супер цена). Внимание количество ограничено!!!

iTunes

1+1

iTunes

мы

iTunes

1

iTunes

Чернобыль

iTunes

Ральф против интернета

Лицензия

ПШазам

Лицензия

Игра престолов

Лицензия

30
pack

ВАЖНО

!!Акция!!

Alien_RageХит недели

RePack

Resident Evil 21

ИГРА 18+

pack

RePack

Metro:Exodus

!!Акция!!

Alien_Rage

RePack

fifa19

RePack

Assassins Creed: Odyssey

RePack

NEED FOR SPEED™ PAYBACK

3 сезон

9 сезон

Бесстыжие 9 сезон

Все сериалы

все сериалы на PB.wtf

RePack

FAR CRY 5
Ребята, катастрофически не хватает 1900р. для оплаты серверов за Октябрь (всвязи с блокировками трафик упал в 3 раза), 1-2р., выручайте.
  

Шарф любимой (Евгений Иванов-Барков, Зиновия Маркина) [1955, СССР, комедия, SATRip-AVC от AVP Studio] pb.wtf

Шарф любимой через торрент pb.wtf

Размер: 1.09 GB | Добавлен: 3 года 3 мес. назад | Торрент скачан:21 раз
Скачать  

08-08-2016 09:16 Шарф любимой Скачать торрент  

Шарф любимой
Страна: СССР
Производство: Одесская киностудия

Жанр: комедия
Год выпуска: 1955
Продолжительность: 01:23:11

Перевод: Не требуется
Cубтитры: нет
Оригинальная аудиодорожка: русский

Режиссер: Евгений Иванов-Барков, Зиновия Маркина

В ролях:
Тамара Кокова, Елена Муратова, Нодар Шашик-оглы, Хусейн Товкуев, Николай Волков (старший), Варвара Каргинова, Али Тухужев, Азрет Тхазаплижев, Мухамед Тубаев...
Полный список актёров

Описание:
В одном из колхозов Кабарды группа молодежи во главе с джигитом Эльдаром Абуковым организует конно-спортивный клуб. Но Исмель Шарданов смеется над научной системой тренировок своего друга Эльдара. Тогда Эльдар вызывает его на соревнование. Победитель должен получить "шарф любимой" - традиционный приз таких состязаний...

Источник: DVB
Качество видео: SATRip-AVC
Формат видео: MKV

Видео: 688->760x570 (4:3), 25 fps, H264 ~ 1678 kbps avg, 0.171 bit/pixel
Аудио: 48 kHz, Dolby Digital AC3 2.0, 192 kbps

Раздача от:
Общее
Полное имя : Sharf.lyubimoy.1955.DVDRip-AVC_[New-team]_by_AVP_Studio.mkv
Формат : Matroska
Версия формата : Version 4 / Version 2
Размер файла : 1,09 Гбайт
Продолжительность : 1 ч. 23 м.
Общий поток : 1871 Кбит/сек
Дата кодирования : UTC 2016-08-07 12:03:08
Программа кодирования : mkvmerge v9.3.1 ('Mask Machine') 64bit
Библиотека кодирования : libebml v1.3.4 + libmatroska v1.4.5

Видео
Идентификатор : 1
Формат : AVC
Формат/Информация : Advanced Video Codec
Профиль формата : High@L4.1
Параметр CABAC формата : Да
Параметр ReFrames формата : 10 кадров
Идентификатор кодека : V_MPEG4/ISO/AVC
Продолжительность : 1 ч. 23 м.
Битрейт : 1678 Кбит/сек
Ширина : 688 пикселей
Высота : 570 пикселей
Соотношение сторон : 4:3
Режим частоты кадров : Постоянный
Частота кадров : 25,000 кадров/сек
Цветовое пространство : YUV
Субдискретизация насыщенности : 4:2:0
Битовая глубина : 8 бит
Тип развёртки : Прогрессивная
Бит/(Пиксели*Кадры) : 0.171
Размер потока : 998 Мбайт (90%)
Заголовок : Шарф любимой (1955) источник DVD R5
Язык : Russian
Default : Да
Forced : Нет

Аудио
Идентификатор : 2
Формат : AC-3
Формат/Информация : Audio Coding 3
Расширение режима : CM (complete main)
Параметр Endianness формата : Big
Идентификатор кодека : A_AC3
Продолжительность : 1 ч. 23 м.
Вид битрейта : Постоянный
Битрейт : 192 Кбит/сек
Каналы : 2 канала
Расположение каналов : Front: L R
Частота : 48,0 КГц
Частота кадров : 31,250 кадров/сек (1536 spf)
Метод сжатия : С потерями
Задержка видео : 16 мс.
Размер потока : 114 Мбайт (10%)
Заголовок : Шарф любимой (1955) источник DVD R5
Язык : Russian
Default : Да
Forced : Нет
pb.wtf



Скачать Шарф любимой через торрент http://s011.radikal.ru/i315/1608/29/2f976142d051.png Скачать фильм Шарф любимой через торрент бесплантно в хорошем качестве Описание:В одном из колхозов Кабарды группа молодежи во главе с джигитом Эльдаром Абуковым организует конно-спортивный клуб. Но Исмель ... 10 10 2
Info! Золотая раздача, скачанное не засчитывается.
Торрент: Зарегистрирован [2016-08-08 09:16] · скачан: 21 раз
Статус: √ проверено
Размер: 1.09 GB
Как cкачать? Как скачать Шарф любимой через торрент | qTorrent

% Раздел Тема Автор DL S | L
Кино СССР [ 744 MB ] Шарф любимой [1955 СССР SATRip от AVP Studio] AVP Studio Скачать
1 | 0
Кино СССР [ 1.09 GB ] Шарф любимой [1955 СССР SATRip от AVP Studio] AVP Studio Скачать
1 | 0


>> Регистрируемся здесь <<






Отзывы и комментарии о схеме читаем и пишем здесь: ---> Отзывы и комментарии о схеме

Новые благодарочки в телеграм довольных пользователей:
скриншот   скриншот   скриншот   скриншот   скриншот
    Дорогой пользователь! Огромная просьба, поблагодарите релизера, оцените раздачу и оставьте свои комментарий, если Вы скачали Шарф любимой через торрент бесплатно! Внесите свою лепту в развитие PiratBit!
    Комментировать посты могут только пользователи прошедшие не сложную регистрацию
    Показать сообщения:    

    Шарф любимой через торрент
    Скачать бесплатно Шарф любимой
    Шарф любимой скачать торрент
    Шарф любимой смотреть онлайн
    Cкачать фильм Шарф любимой бесплатно
    Шарф любимой скачать торрент в хорошем качестве
    Шарф любимой смотреть онлайн бесплатно в хорошем качестве


    Вы не можете начинать темы
    Вы не можете отвечать на сообщения
    Вы не можете редактировать свои сообщения
    Вы не можете удалять свои сообщения
    Вы не можете голосовать в опросах
    Вы не можете прикреплять файлы к сообщениям
    Вы можете скачивать файлы