Ссылка на приватное зеркало нашего сайта всего за 1$. Внимание количество ограничено!!!

2 сезон

iTunes

1 сезон

1

iTunes

iTunes

iTunes

1 сезон

RePack

30

ИГРА 18+

pack

ВАЖНО

!!Акция!!

Alien_RageХит недели

RePack

MK11
pack

Забери бонус

RePack

jed

!!Акция!!

Alien_Rage

RePack

fifa19

RePack

Assassins Creed: Odyssey

RePack

NEED FOR SPEED™ PAYBACK

4 сезон

9 сезон

Бесстыжие 9 сезон

Все сериалы

все сериалы на PB.wtf

RePack

FAR CRY 5
  

Кризис нежного возраста / Серии: 1-8 из 8 (Наталья Меркулова, Алексей Чупов ) [2016,комедия, мелодрама, SATRip-AVC] pb.wtf

Кризис нежного возраста через торрент pb.wtf

Размер: 4.87 GB | Добавлен: 4 года 2 мес. назад | Торрент скачан:188 раз
Скачать  

08-08-2016 17:59 Кризис нежного возраста Скачать торрент  

Кризис нежного возраста




Год выпуска: 2016
Производство: Россия, кинокомпания "Магнум"
Жанр: комедия, мелодрама
Продолжительность: 00:40:00
Субтитры: нет




Режиссёр:Наталья Меркулова, Алексей Чупов



В ролях:Мария Поезжаева, Ксения Суркова, Кристина Исайкина, Руслан Ягудин, Никита Волков, Екатерина Захарова (II), Евгений Цыганов, Александра Ребенок, Фёдор Лавров, Максим Виторган, Артём Лощилин, Олег Долин, Ольга Тумайкина, Алиса Гребенщикова, Андрей Федорцов, Александр Грашин



Описание:История трех подруг 17-18 лет: мечтательной и влюбчивой Шуре Ермаковой, которая смотрит на мир с юношеским максимализмом, спортсменке Юле Кузьминой, приехавшей в Москву из Калуги, и бойкой Ане Силкиной, дочери кинопродюсера, которая мечтает проявить себя в творчестве.
Они еще не успели вступить во взрослую жизнь — но проблемы у них уже настоящие. К Шуре вернулась мама, которой не было 16 лет — и она съезжается со своим другом Козябиным, чтобы не жить с семьей. Кузьмина пытается расстаться со своим вероломным парнем-полицейским и найти кого-то нового. Силкина хочет найти себя и пробует стать то актрисой, то журналисткой, то художницей. И это далеко не всё.













Качество: SATRip-AVC
Формат: MKV
Видео кодек: H.264
Аудио кодек: AC3
Видео: MPEG-4 AVC, 720х400,25fps,~1800 Кбит/сек,Bits/Pixel 0.250
Аудио: AC3, 48 kHz, ~192 Kbps, 2 канала



Общее
Уникальный идентификатор : 252976843193267478809205749744468749963 (0xBE51915857A23908AC165381AC73EE8B)
Полное имя : D:\Кризис нежного возраста\01 серия_Кризис нежного возраста_rip by_Aleksan55.mkv
Формат : Matroska
Версия формата : Version 2
Размер файла : 583 Мбайт
Продолжительность : 40 м.
Общий поток : 1994 Кбит/сек
Дата кодирования : UTC 2016-08-08 17:55:00
Программа кодирования : mkvmerge v7.8.0 ('River Man') 32bit built on Apr 3 2015 12:11:22
Библиотека кодирования : libebml v1.3.1 + libmatroska v1.4.2

Видео
Идентификатор : 1
Формат : AVC
Формат/Информация : Advanced Video Codec
Профиль формата : High@L4.1
Параметр CABAC формата : Да
Параметр ReFrames формата : 12 кадров
Идентификатор кодека : V_MPEG4/ISO/AVC
Продолжительность : 40 м.
Битрейт : 1800 Кбит/сек
Ширина : 720 пикселей
Высота : 400 пикселей
Соотношение сторон : 16:9
Режим частоты кадров : Постоянный
Частота кадров : 25,000 кадров/сек
Цветовое пространство : YUV
Субдискретизация насыщенности : 4:2:0
Битовая глубина : 8 бит
Тип развёртки : Прогрессивная
Бит/(Пиксели*Кадры) : 0.250
Размер потока : 515 Мбайт (88%)
Библиотека кодирования : x264 core 148 r2638 7599210
Настройки программы : cabac=1 / ref=12 / deblock=1:-3:-3 / analyse=0x3:0x133 / me=umh / subme=9 / psy=1 / psy_rd=1.00:0.25 / mixed_ref=0 / me_range=32 / chroma_me=1 / trellis=2 / 8x8dct=1 / cqm=0 / deadzone=21,11 / fast_pskip=1 / chroma_qp_offset=-4 / threads=4 / lookahead_threads=4 / sliced_threads=0 / nr=0 / decimate=1 / interlaced=0 / bluray_compat=0 / constrained_intra=0 / bframes=12 / b_pyramid=2 / b_adapt=2 / b_bias=0 / direct=3 / weightb=1 / open_gop=0 / weightp=2 / keyint=250 / keyint_min=25 / scenecut=40 / intra_refresh=0 / rc_lookahead=40 / rc=2pass / mbtree=1 / bitrate=1800 / ratetol=1.0 / qcomp=0.60 / qpmin=0 / qpmax=69 / qpstep=4 / cplxblur=20.0 / qblur=0.5 / ip_ratio=1.40 / aq=1:1.20
Default : Да
Forced : Нет
Цветовой диапазон : Limited
Основные цвета : BT.601 PAL
Характеристики трансфера : BT.470 System B, BT.470 System G
Коэффициенты матрицы : BT.601

Аудио
Идентификатор : 2
Формат : AC-3
Формат/Информация : Audio Coding 3
Расширение режима : CM (complete main)
Параметр Endianness формата : Big
Идентификатор кодека : A_AC3
Продолжительность : 40 м.
Вид битрейта : Постоянный
Битрейт : 192 Кбит/сек
Каналы : 2 канала
Расположение каналов : Front: L R
Частота : 48,0 КГц
Метод сжатия : С потерями
Размер потока : 56,1 Мбайт (10%)
Default : Да
Forced : Нет
Внимание! Раздача ведётся путём добавления новых серий; при каждом добавлении создаётся новый торрент.
Чтобы начать докачку новой серии, пользователям необходимо сделать следующее:
1. Остановить скачивание;
2. Удалить старый торрент у себя из клиента (старые серии удалять не надо);
3. Скачать новый торрент и запустить его у себя в клиенте вместо старого, при этом указать клиенту путь в старую папку куда и должно происходить скачивание новых серий. Ваш клиент при этом должен произвести хеширование (проверку) старой папки и будет докачивать только те серии, которых у вас ещё нет. Старые серии при этом не удаляются, а продолжают раздаваться! Eсли вы уже удалили старые серии, то предотвратить повторную закачку старых серий можно, отжав галочку в соответствующих местах при запуске нового торрента.


Рекламы нет.Добавлена 8 серия.pb.wtf



Скачать Кризис нежного возраста через торрент http://s018.radikal.ru/i522/1608/98/a76b51c5abac.jpg Скачать фильм Кризис нежного возраста через торрент бесплантно в хорошем качестве Описание:История трех подруг 17-18 лет: мечтательной и влюбчивой Шуре Ермаковой, которая смотрит на мир с юношеским максимализмом, ... 9 10 12
Торрент: Зарегистрирован [2016-08-18 19:28] · скачан: 188 раз
Статус: √ проверено
Размер: 4.87 GB
Как cкачать? Как скачать Кризис нежного возраста через торрент | qTorrent

% Раздел Тема Автор DL S | L
Наши сериалы [ 10.4 GB ] Кризис нежного возраста / Сезон: 1 / Серии: 1-8 из 8 [2016 Мело WEB-DL 1080p] bober100 Скачать
1 | 0
Наши сериалы [ 4.47 GB ] Кризис нежного возраста / Серии: 1-8 из 8 [2016 Мело WEB-DLRip] smaster Скачать
1 | 0
Наши сериалы [ 9.31 GB ] Кризис нежного возраста / Сезон: 1 / Серии 1-8 из 8 [2016 Россия Мело WEB-DL 720p) GEKADOL Скачать
1 | 0


Последний раз редактировалось: aleksan55 (2016-08-18 19:28), всего редактировалось 7 раз(а)

28-11-2019 20:33  

Отключить всю рекламу на сайте

08-08-2016 21:38 Кризис нежного возраста Скачать торрент  

Прикольный сериал телка с моего города)pb.wtf



09-08-2016 13:51 Кризис нежного возраста Скачать торрент  

супер девчонкиpb.wtf



17-08-2016 17:53 Кризис нежного возраста Скачать торрент  

Сериал*девчонки* Remastered pb.wtf



18-08-2016 19:49 Кризис нежного возраста Скачать торрент  

Спасибо за сезон)pb.wtf



    Дорогой пользователь! Огромная просьба, поблагодарите релизера, оцените раздачу и оставьте свои комментарий, если Вы скачали Кризис нежного возраста через торрент бесплатно! Внесите свою лепту в развитие PiratBit!
    Комментировать посты могут только пользователи прошедшие не сложную регистрацию
    Показать сообщения:    

    Кризис нежного возраста через торрент
    Скачать бесплатно Кризис нежного возраста
    Кризис нежного возраста скачать торрент
    Кризис нежного возраста смотреть онлайн
    Cкачать фильм Кризис нежного возраста бесплатно
    Кризис нежного возраста скачать торрент в хорошем качестве
    Кризис нежного возраста смотреть онлайн бесплатно в хорошем качестве


    Вы не можете начинать темы
    Вы не можете отвечать на сообщения
    Вы не можете редактировать свои сообщения
    Вы не можете удалять свои сообщения
    Вы не можете голосовать в опросах
    Вы не можете прикреплять файлы к сообщениям
    Вы можете скачивать файлы