Всегда рабочее зеркало просто перед .vidak.icu напиши любое слово или цифру, Пример http://7lb.vidak.icu

>

7.4

iTunes

7.4

2 сезон

9.4

1 сезон

1

7.4

2 сезон

7.2

iTunes

6.0

MVO

13

6.1

iTunes

8.3

Пиратка

30

ULTIMATE

pack

9.9

Лицензия

ВАЖНО

ИГРА 18+

pack

7.3

RePack

MK11

7.7

RePack

jed

7.8

RePack

fifa19

8.5

RePack

RDR2

RePack

NEED FOR SPEED™ PAYBACK

1 сезон

9 сезон

Бесстыжие 9 сезон

Все сериалы

все сериалы на PB.wtf

RePack

FAR CRY 5

Anonymous, доброй ночи, мы катастрофически не успеваем собрать деньги на оплату серверов, помогите нам пожалуйста 5,10,15р., для нас важна любая помощь . В качестве благодарности мы отключим Вам всю рекламу на сайте (укажите свой ник в строку Ваше имя)!

×
  
Magnet ссылка

Путь на юг / Southbound (Роксанна Бенжамин, Дэвид Брукнер, Патрик Хорват) [2015 г., ужасы, фантастика, триллер, HDRip, Авторский одноголосый "Д.Есарев"] pb.wtf

Путь на юг через торрент pb.wtf

Размер: 1.45 GB | Добавлен: 5 лет 5 мес. назад | Торрент скачан:50 раз
Смотреть онлайн Путь на юг | Скачать    Ребята, помогите собрать деньги на оплату серверов!!!

09-08-2016 17:34 Путь на юг Скачать торрент  

Путь на юг / Southbound
Год выпуска: 2015
Страна: США / Willowbrook Regent Films
Жанр: ужасы, фантастика, триллер
Продолжительность: 01:29:09
Перевод: Авторский одноголосый (Д.Есарев)

Режиссер: Роксанна Бенжамин, Дэвид Брукнер, Патрик Хорват




В ролях: Кейт Бихан, Мэттью Беттинелли, Сьюзэн Бурк, Зои Купер, Джералд Дауни, Карла Дродж, Ларри Фессенден, Дэна Гулд, Хасси Харрисон, Дэйв Джонсон

Описание: Пустынный участок дороги, усталые путники — двое мужчин, бегущих от своего прошлого, группа на пути к следующему концерту, человек пытающийся попасть домой, брат в поисках давно потерянной сестры и семьи на отдыхе — вынуждены противостоять своим страхам и самым темным тайнам, чтобы раскаяться на дороге.

Качество: HDRip
Формат: AVI
Видео кодек: XviD
Аудио кодек: AC3
Видео: 720x304 (2.37:1), 23.976 fps, XviD build 50 ~1875 kbps avg, 0.36 bit/pixel
Аудио: 48 kHz, AC3 Dolby Digital, 3/2 (L,C,R,l,r) + LFE ch, ~448 kbps

Общее
Полное имя : F:\кино\Путь на юг.2015.A.HDRip.avi
Формат : AVI
Формат/Информация : Audio Video Interleave
Размер файла : 1,45 Гбайт
Продолжительность : 1 ч. 29 м.
Общий поток : 2332 Кбит/сек
Название фильма : Путь на юг.2015.A.HDRip.avi
Режиссёр : Rip by coc900
Программа кодирования : VirtualDubMod 1.5.10.3 | www.virtualdub-fr.org || (build 2550/release)

Видео
Идентификатор : 0
Формат : MPEG-4 Visual
Профиль формата : Advanced Simple@L5
Параметр BVOP формата : 1
Параметр QPel формата : Нет
Параметр GMC формата : Без точки перехода
Параметр матрицы формата : Default (MPEG)
Идентификатор кодека : XVID
Идентификатор кодека/Подсказка : XviD
Продолжительность : 1 ч. 29 м.
Битрейт : 1875 Кбит/сек
Ширина : 720 пикселей
Высота : 304 пикселя
Соотношение сторон : 2,35:1
Частота кадров : 23,976 (23976/1000) кадра/сек
Цветовое пространство : YUV
Субдискретизация насыщенности : 4:2:0
Битовая глубина : 8 бит
Тип развёртки : Прогрессивная
Метод сжатия : С потерями
Бит/(Пиксели*Кадры) : 0.357
Размер потока : 1,17 Гбайт (80%)
Библиотека кодирования : XviD 1.2.1 (UTC 2008-12-04)

Аудио
Идентификатор : 1
Формат : AC-3
Формат/Информация : Audio Coding 3
Расширение режима : CM (complete main)
Параметр Endianness формата : Big
Идентификатор кодека : 2000
Продолжительность : 1 ч. 29 м.
Вид битрейта : Постоянный
Битрейт : 448 Кбит/сек
Каналы : 6 каналов
Расположение каналов : Front: L C R, Side: L R, LFE
Частота : 48,0 КГц
Частота кадров : 31,250 кадров/сек (1536 spf)
Метод сжатия : С потерями
Размер потока : 285 Мбайт (19%)
Выравнивание : Разделение по промежуткам
Продолжительность промежутка : 42 мс. (1,00 видеокадр)
Время предзагрузки промежутка : 500 мс.

pb.wtf



Скачать Путь на юг через торрент https://pic.kartinco.top/images/11/pd2uu.jpg Скачать, смотреть онлайн Путь на юг бесплантно в хорошем качестве Описание: Пустынный участок дороги, усталые путники — двое мужчин, бегущих от своего прошлого, группа на пути к следующему концерту, ... 9.5 10 2
Торрент: Зарегистрирован [2016-08-09 17:38] · скачан: 50 раз
Статус: √ проверено
Размер: 1.45 GB
Как cкачать? Как скачать Путь на юг через торрент | UTorrent

% Раздел Тема Автор DL S | L
Фильмы 2015 [DVDrip, WEB-DLRip, HDrip] [ 1.46 GB ] Путь на юг / Монстры юга / Southbound [2015 BDRip] MVO bober100 Скачать
1 | 0
T Фильмы 2015 [DVDrip, WEB-DLRip, HDrip] [ 1.58 GB ] Путь на юг / Монстры юга / Southbound [2015 BDRip-AVC] MVO [MEGOGO] - ExKinoRay Enigma2010 Скачать
1 | 0
T Фильмы 2015 [DVDrip, WEB-DLRip, HDrip] [ 1.46 GB ] Путь на юг / Монстры юга / Southbound [2015 BDRip] MVO [MEGOGO] Twi7ter Скачать
1 | 0
Фильмы с авторской озвучкой [ 2.03 GB ] Путь на юг / Southbound [2015 HDRip] 2xAVO [Дмитрий Есарев] bober100 Скачать
1 | 0
T Фильмы (Blu-ray, BD-Remux, HDDVD) [ 19.05 GB ] Путь на юг / Southbound [2015 BDRemux 1080p] от ExKinoRay / VO AVO Russian Mafia Скачать
1 | 0

28-11-2019 20:33  

Отключить всю рекламу на сайте

    Дорогой пользователь! Огромная просьба, поблагодарите релизера, оцените раздачу и оставьте свои комментарий, если Вы скачали Путь на юг через торрент бесплатно!
    Комментировать посты могут только пользователи прошедшие не сложную регистрацию
    Показать сообщения:    

    Путь на юг через торрент
    Скачать бесплатно Путь на юг
    Путь на юг скачать торрент
    Путь на юг смотреть онлайн
    Cкачать фильм Путь на юг бесплатно
    Путь на юг скачать торрент в хорошем качестве
    Путь на юг смотреть онлайн бесплатно в хорошем качестве


    Вы не можете начинать темы
    Вы не можете отвечать на сообщения
    Вы не можете редактировать свои сообщения
    Вы не можете удалять свои сообщения
    Вы не можете голосовать в опросах
    Вы не можете прикреплять файлы к сообщениям
    Вы можете скачивать файлы