Присоединяйтесь к нам в Telegram!, здесь всегда актуальный адрес сайта, оперативная поддержка и многое другое!!

>

5.9

iTunes

7.4

iTunes

9.4

1 сезон

1

7.4

2 сезон

7.2

iTunes

7.3

1 сезон

13

6.1

iTunes

8.3

GOG

30

ULTIMATE

pack

9.9

Лицензия

ВАЖНО

ИГРА 18+

pack

7.3

RePack

MK11

7.7

RePack

jed

7.8

RePack

fifa19

8.5

RePack

RDR2

RePack

NEED FOR SPEED™ PAYBACK

5 сезон

9 сезон

Бесстыжие 9 сезон

Все сериалы

все сериалы на PB.wtf

RePack

FAR CRY 5

Anonymous, доброй ночи, мы катастрофически не успеваем собрать деньги на оплату серверов, помогите нам пожалуйста 5,10,15р., для нас важна любая помощь . В качестве благодарности мы отключим Вам всю рекламу на сайте (укажите свой ник в строку Ваше имя)!

×
  
Magnet ссылка

Стриптиз для Вас! / Striptease For You! [2016 г., Adult erotic music clips, Striptease, Dance, WEB-DL 720p] pb.wtf

Стриптиз для Вас! через торрент pb.wtf

Размер: 3.97 GB | Добавлен: 5 лет 3 мес. назад | Торрент скачан:1092 раза
Смотреть онлайн Стриптиз для Вас! | Скачать    Ребята, помогите собрать деньги на оплату серверов!!!

10-08-2016 11:57 Стриптиз для Вас! Скачать торрент  

Стриптиз для Вас! / Striptease For You!
Год выпуска: 2016
Страна: All World
Жанр: Adult erotic music clips, Striptease, Dance
Продолжительность: 03:35:43

Описание: Эти красивые девушки станцуют и разденутся именно только для вас!

Качество: WEB-DL 720p
Формат: MP4
Видео кодек: AVC
Аудио кодек: AAC
Видео: AVC, 1280x720,1920x1080 (16:9), 25.000 fps, 4 500 Kbps (0.087 bit/pixel)
Аудио#1: AAC LC, 48.0 KHz, 2 ch, 147-256 Kbps, VBR
01. Miss Miranda - Fetish Stocking Striptease
02. Ancilla Tilia
03. Jennifer Romas - Sexxy
04. Roxi D'Lite as Madame X
05. Emotion
06. A State of Undress - A night of Traditional Striptease
07. Cab Le Rouge
08. Gilded Princess
09. Happy Holidays
10. Ah-Ah - Moby feat. Holli Would
11. Chantel by Brendon O'Neal
12. Whimsy - Mesmerize Me
13. Striptease for you! Privately
14. Liz Ashley Striptease
15. Mix 3 sexy girls (sexy )
16. Naked fun
17. Ann Striptease
18. Jesse Jane - Nerd
19. Pole Dance Show
20. Liz Ashley in Seduction in Green
21. Caroline Glamour - Studio striptease
22. Olivia Bellafontaine - Close The Curtains
23. Danni Randy - Moore Some Moore Christmas
24. Elizabeth Marxs - Stetson
25. VIP Zone
26. Caroline Sexy - Outdoor
27. Hot Girl
28. Emily Evans - Steampunk Striptease
29. Les filles du Club Le Private
30. Playful Becky Perry
31. Nicole Vaunt
32. Striptease profesional
33. Tah Soo Fa La Lahs - SURFQUAKE
34. Never Judge A Book By It's Cover
35. Exhibitionist babe
36. Gagarin - Tenderness
37. Liz Ashley is Genie
38. Slow & Sexy
39. Model Noel - Striptease at Home
40. Lost Strip - Fefa tira a nova colecao
41. Mephistocracy - 2548 Pictures
42. Sugar Dance
43. Theresa Manchester - Looks Like Rain
44. Miss Miranda - Voodoo Priestess
45. Show Girls - Cabaret & behind the scenes. Warm-up
46. Show Girls - Cabaret & behind the scenes. All
47. Mystery Ladies - Roxy's red bed
48. Stolen Sweeties - Digital Striptease
49. Numero de Danse a Trois
50. Best Striptease
51. Anastasiya - Gramatik
скриншот   скриншот   скриншот   скриншот   скриншот   скриншот   скриншот  
скриншот   скриншот   скриншот   скриншот   скриншот   скриншот   скриншот  

Общее
Полное имя : C:\Раздача\Клипы\Striptease For You! (2016)\01. Miss Miranda - Fetish Stocking Striptease.mp4
Формат : MPEG-4
Профиль формата : Base Media / Version 2
Идентификатор кодека : mp42 (mp42/mp41/isom/avc1)
Размер файла : 172 Мбайт
Продолжительность : 5 м. 2 с.
Режим общего битрейта : Переменный
Общий поток : 4754 Кбит/сек
Дата кодирования : UTC 2014-01-26 22:06:40
Дата пометки : UTC 2014-01-26 22:06:40

Видео
Идентификатор : 1
Формат : AVC
Формат/Информация : Advanced Video Codec
Профиль формата : High@L4
Параметр CABAC формата : Да
Параметр ReFrames формата : 4 кадра
Идентификатор кодека : avc1
Идентификатор кодека/Информация : Advanced Video Coding
Продолжительность : 5 м. 2 с.
Битрейт : 4500 Кбит/сек
Ширина : 1920 пикселей
Высота : 1080 пикселей
Соотношение сторон : 16:9
Режим частоты кадров : Постоянный
Частота кадров : 25,000 кадров/сек
Цветовое пространство : YUV
Субдискретизация насыщенности : 4:2:0
Битовая глубина : 8 бит
Тип развёртки : Прогрессивная
Бит/(Пиксели*Кадры) : 0.087
Размер потока : 162 Мбайт (95%)
Библиотека кодирования : x264 core 140 r2377 1ca7bb9
Настройки программы : cabac=1 / ref=3 / deblock=1:0:0 / analyse=0x3:0x113 / me=hex / subme=7 / psy=1 / psy_rd=1.00:0.00 / mixed_ref=1 / me_range=16 / chroma_me=1 / trellis=1 / 8x8dct=1 / cqm=0 / deadzone=21,11 / fast_pskip=1 / chroma_qp_offset=-2 / threads=12 / lookahead_threads=2 / sliced_threads=0 / nr=0 / decimate=1 / interlaced=0 / bluray_compat=0 / stitchable=1 / constrained_intra=0 / bframes=3 / b_pyramid=2 / b_adapt=1 / b_bias=0 / direct=1 / weightb=1 / open_gop=0 / weightp=2 / keyint=75 / keyint_min=25 / scenecut=40 / intra_refresh=0 / rc_lookahead=40 / rc=2pass / mbtree=1 / bitrate=4500 / ratetol=1.0 / qcomp=0.60 / qpmin=5 / qpmax=69 / qpstep=4 / cplxblur=20.0 / qblur=0.5 / vbv_maxrate=6750 / vbv_bufsize=22500 / nal_hrd=none / filler=0 / ip_ratio=1.40 / aq=1:1.00
Дата кодирования : UTC 2014-01-26 22:06:40
Дата пометки : UTC 2014-01-26 22:06:40

Аудио
Идентификатор : 2
Формат : AAC
Формат/Информация : Advanced Audio Codec
Профиль формата : LC
Идентификатор кодека : 40
Продолжительность : 5 м. 2 с.
Вид битрейта : Переменный
Битрейт : 256 Кбит/сек
Каналы : 2 канала
Расположение каналов : Front: L R
Частота : 48,0 КГц
Частота кадров : 46,875 кадров/сек (1024 spf)
Метод сжатия : С потерями
Размер потока : 9,25 Мбайт (5%)
Дата кодирования : UTC 2014-01-26 22:06:40
Дата пометки : UTC 2014-01-26 22:06:40

Общее
Полное имя : C:\Раздача\Клипы\Striptease For You! (2016)\06. A State of Undress - A night of Traditional Striptease.mp4
Формат : MPEG-4
Профиль формата : Base Media / Version 2
Идентификатор кодека : mp42 (mp42/mp41/isom/avc1)
Размер файла : 96,2 Мбайт
Продолжительность : 2 м. 50 с.
Режим общего битрейта : Переменный
Общий поток : 4743 Кбит/сек
Дата кодирования : UTC 2014-05-29 03:04:14
Дата пометки : UTC 2014-05-29 03:04:14

Видео
Идентификатор : 1
Формат : AVC
Формат/Информация : Advanced Video Codec
Профиль формата : High@L4
Параметр CABAC формата : Да
Параметр ReFrames формата : 4 кадра
Идентификатор кодека : avc1
Идентификатор кодека/Информация : Advanced Video Coding
Продолжительность : 2 м. 50 с.
Битрейт : 4500 Кбит/сек
Ширина : 1920 пикселей
Высота : 1080 пикселей
Соотношение сторон : 16:9
Режим частоты кадров : Постоянный
Частота кадров : 25,000 кадров/сек
Цветовое пространство : YUV
Субдискретизация насыщенности : 4:2:0
Битовая глубина : 8 бит
Тип развёртки : Прогрессивная
Бит/(Пиксели*Кадры) : 0.087
Размер потока : 90,9 Мбайт (95%)
Библиотека кодирования : x264 core 142 r2409 d6b4e63
Настройки программы : cabac=1 / ref=3 / deblock=1:0:0 / analyse=0x3:0x113 / me=hex / subme=7 / psy=1 / psy_rd=1.00:0.00 / mixed_ref=1 / me_range=16 / chroma_me=1 / trellis=1 / 8x8dct=1 / cqm=0 / deadzone=21,11 / fast_pskip=1 / chroma_qp_offset=-2 / threads=48 / lookahead_threads=8 / sliced_threads=0 / nr=0 / decimate=1 / interlaced=0 / bluray_compat=0 / stitchable=1 / constrained_intra=0 / bframes=3 / b_pyramid=2 / b_adapt=1 / b_bias=0 / direct=1 / weightb=1 / open_gop=0 / weightp=2 / keyint=75 / keyint_min=25 / scenecut=40 / intra_refresh=0 / rc_lookahead=40 / rc=2pass / mbtree=1 / bitrate=4500 / ratetol=1.0 / qcomp=0.60 / qpmin=5 / qpmax=69 / qpstep=4 / cplxblur=20.0 / qblur=0.5 / vbv_maxrate=6750 / vbv_bufsize=22500 / nal_hrd=none / filler=0 / ip_ratio=1.40 / aq=1:1.00
Дата кодирования : UTC 2014-05-29 03:04:14
Дата пометки : UTC 2014-05-29 03:04:14

Аудио
Идентификатор : 2
Формат : AAC
Формат/Информация : Advanced Audio Codec
Профиль формата : LC
Идентификатор кодека : 40
Продолжительность : 2 м. 50 с.
Вид битрейта : Переменный
Битрейт : 256 Кбит/сек
Каналы : 2 канала
Расположение каналов : Front: L R
Частота : 48,0 КГц
Частота кадров : 46,875 кадров/сек (1024 spf)
Метод сжатия : С потерями
Размер потока : 5,19 Мбайт (5%)
Дата кодирования : UTC 2014-05-29 03:04:14
Дата пометки : UTC 2014-05-29 03:04:14

pb.wtf



Скачать Стриптиз для Вас! через торрент https://pic1.kartinco.top/images/10/93du7.jpg Скачать, смотреть онлайн Стриптиз для Вас! бесплантно в хорошем качестве Описание: Эти красивые девушки станцуют и разденутся именно только для ... 9.5 10 42
Торрент: Зарегистрирован [2016-08-10 11:57] · скачан: 1 092 раз
Статус: √ проверено
Размер: 3.97 GB
Как cкачать? Как скачать Стриптиз для Вас! через торрент | UTorrent

28-11-2019 20:33  

Отключить всю рекламу на сайте

10-08-2016 18:50 Стриптиз для Вас! Скачать торрент  

ну так на 4- думал будет круче.. автору плюшку за старания!!!pb.wtf



27-11-2016 13:56 Стриптиз для Вас! Скачать торрент  

у меня где то игра валяеться на двух дисках.телки на рабочем столе танцуют в 3Dpb.wtf



    Дорогой пользователь! Огромная просьба, поблагодарите релизера, оцените раздачу и оставьте свои комментарий, если Вы скачали Стриптиз для Вас! через торрент бесплатно!
    Комментировать посты могут только пользователи прошедшие не сложную регистрацию
    Показать сообщения:    

    Стриптиз для Вас! через торрент
    Скачать бесплатно Стриптиз для Вас!
    Стриптиз для Вас! скачать торрент
    Стриптиз для Вас! смотреть онлайн
    Cкачать фильм Стриптиз для Вас! бесплатно
    Стриптиз для Вас! скачать торрент в хорошем качестве
    Стриптиз для Вас! смотреть онлайн бесплатно в хорошем качестве


    Вы не можете начинать темы
    Вы не можете отвечать на сообщения
    Вы не можете редактировать свои сообщения
    Вы не можете удалять свои сообщения
    Вы не можете голосовать в опросах
    Вы не можете прикреплять файлы к сообщениям
    Вы можете скачивать файлы