1 сезон

1 сезон

iTunes

1

КиноПоиск HD

Кинопоиск HD

iTunes

13

1 сезон

RePack

30

Новинка

ВАЖНО

ИГРА 18+

pack

RePack

MK11
pack

Легкие деньги

RePack

jed

RePack

fifa19

RePack

RDR2

RePack

NEED FOR SPEED™ PAYBACK

4 сезон

9 сезон

Бесстыжие 9 сезон

Все сериалы

все сериалы на PB.wtf

RePack

FAR CRY 5
  
Magnet ссылка

Леди-кошка / Minoes (Винсент Баль) [2001 г., фэнтези, комедия, семейный, BDRip] MVO pb.wtf

Леди-кошка через торрент pb.wtf

Размер: 744 MB | Добавлен: 4 года 8 мес. назад | Торрент скачан:29 раз
Скачать  

10-08-2016 19:02 Леди-кошка Скачать торрент  

Леди-кошка / Minoes
Год выпуска: 2001
Страна: Нидерланды
Жанр: фэнтези, комедия, семейный
Продолжительность: 01:26:06
Перевод: Профессиональный (многоголосый)

Режиссер: Винсент Баль

Премьера в мире: 6 декабря 2001



В ролях: Кэрис ван Хаутен, Тео Маассен, Сара Баньер, Пьер Бокма, Ганс Кестинг, Кеес Хюльст, Ольга Зедерхук, Джек Ваутерсе, Лоес Лука, Катя Схурман, Аннет Мальэрб, Ким Ван Кутен, Мариса Ван Эйле, Нина Ван Хаттум

Описание: По роману Анни Шмидт. Журналист Тибе начинает публиковать в местной газете сенсационные разоблачающие статьи. Через некоторое время выяснилось, что всю информацию он узнавал от Мурли — девушки с душой кошки. Однажды Мурли выпила загадочное зелье и превратилась в хорошенькую девушку с кошачьими повадками. Она пришла жить к Тибе, истала ему поставлять сенсационные новости, которые узнавала от всех котов округи.

Качество: BDRip
Формат: AVI
Видео кодек: XviD
Аудио кодек: MP3
Видео: XviD, 1071 Кбит/с, 688x384, 24 кадр/с
Аудио: MP3, 2 ch, 128 Кбит/с, 48 kHz
Релиз от: Koenig
Общее
Полное имя : Minoes.2001,BDRip.avi
Формат : AVI
Формат/Информация : Audio Video Interleave
Размер файла : 744 Мбайт
Продолжительность : 1 ч. 26 м.
Общий поток : 1208 Кбит/сек
Программа кодирования : VirtualDubMod 1.5.10.2 (build 2540/release)
Библиотека кодирования : VirtualDubMod build 2540/release

Видео
Идентификатор : 0
Формат : MPEG-4 Visual
Профиль формата : Advanced Simple@L5
Параметр BVOP формата : 2
Параметр QPel формата : Нет
Параметр GMC формата : Без точки перехода
Параметр матрицы формата : Default (H.263)
Идентификатор кодека : XVID
Идентификатор кодека/Подсказка : XviD
Продолжительность : 1 ч. 26 м.
Битрейт : 1071 Кбит/сек
Ширина : 688 пикселей
Высота : 384 пикселя
Соотношение сторон : 16:9
Частота кадров : 24,000 кадра/сек
Цветовое пространство : YUV
Субдискретизация насыщенности : 4:2:0
Битовая глубина : 8 бит
Тип развёртки : Прогрессивная
Метод сжатия : С потерями
Бит/(Пиксели*Кадры) : 0.169
Размер потока : 659 Мбайт (89%)
Библиотека кодирования : XviD 1.2.0.dev47 (UTC 2006-11-01)

Аудио
Идентификатор : 1
Формат : MPEG Audio
Версия формата : Version 1
Профиль формата : Layer 3
Идентификатор кодека : 55
Идентификатор кодека/Подсказка : MP3
Продолжительность : 1 ч. 26 м.
Вид битрейта : Постоянный
Битрейт : 128 Кбит/сек
Каналы : 2 канала
Частота : 48,0 КГц
Метод сжатия : С потерями
Размер потока : 78,8 Мбайт (11%)
Выравнивание : Соединение по промежуткам
Продолжительность промежутка : 42 мс. (1,00 видеокадр)
Время предзагрузки промежутка : 504 мс.
Библиотека кодирования : LAME3.99r
Настройки программы : -m s -V 4 -q 3 -lowpass 17 -b 128

Леди-кошка (Мурли) скачать торрент

pb.wtf



Скачать Леди-кошка через торрент https://pic1.kartinco.top/images/10/a95rl.jpg Скачать фильм Леди-кошка через торрент бесплантно в хорошем качестве Описание: По роману Анни Шмидт. Журналист Тибе начинает публиковать в местной газете сенсационные разоблачающие статьи. Через некоторое ... 10 10 4
Торрент: Зарегистрирован [2016-08-10 19:02] · скачан: 29 раз
Статус: √ проверено
Размер: 744 MB
Как cкачать? Как скачать Леди-кошка через торрент | UTorrent

% Раздел Тема Автор DL S | L
Фильмы [HD 720p, 1080p] (Хороший звук DUB, MVO) [ 4.31 GB ] Леди-кошка / Minoes [2001 BDRip 720p] MVO DUB koenig Скачать
1 | 0

28-11-2019 20:33  

Отключить всю рекламу на сайте

10-08-2016 19:53 Леди-кошка Скачать торрент  

Полная лажа и бред,отвратительные фильм ( pb.wtf



10-08-2016 22:07 Леди-кошка Скачать торрент  

bober100 писал(а):

Полная лажа и бред,отвратительные фильм (

а я глянуть хотелpb.wtf



    Дорогой пользователь! Огромная просьба, поблагодарите релизера, оцените раздачу и оставьте свои комментарий, если Вы скачали Леди-кошка через торрент бесплатно! Внесите свою лепту в развитие PiratBit!
    Комментировать посты могут только пользователи прошедшие не сложную регистрацию
    Показать сообщения:    

    Леди-кошка через торрент
    Скачать бесплатно Леди-кошка
    Леди-кошка скачать торрент
    Леди-кошка смотреть онлайн
    Cкачать фильм Леди-кошка бесплатно
    Леди-кошка скачать торрент в хорошем качестве
    Леди-кошка смотреть онлайн бесплатно в хорошем качестве


    Вы не можете начинать темы
    Вы не можете отвечать на сообщения
    Вы не можете редактировать свои сообщения
    Вы не можете удалять свои сообщения
    Вы не можете голосовать в опросах
    Вы не можете прикреплять файлы к сообщениям
    Вы можете скачивать файлы