Присоединяйтесь к нам в Telegram!, здесь всегда актуальный адрес сайта, оперативная поддержка и многое другое!!

>

5.9

iTunes

7.4

iTunes

9.4

1 сезон

1

7.4

2 сезон

7.2

iTunes

7.3

1 сезон

13

6.1

iTunes

8.3

GOG

30

ULTIMATE

pack

9.9

Лицензия

ВАЖНО

ИГРА 18+

pack

7.3

RePack

MK11

7.7

RePack

jed

7.8

RePack

fifa19

8.5

RePack

RDR2

RePack

NEED FOR SPEED™ PAYBACK

5 сезон

9 сезон

Бесстыжие 9 сезон

Все сериалы

все сериалы на PB.wtf

RePack

FAR CRY 5

Anonymous, доброй ночи, мы катастрофически не успеваем собрать деньги на оплату серверов, помогите нам пожалуйста 5,10,15р., для нас важна любая помощь . В качестве благодарности мы отключим Вам всю рекламу на сайте (укажите свой ник в строку Ваше имя)!

×
  
Magnet ссылка

Противостояние / Серии: 1-5 из 5 ( Семен Аранович) [1985, детектив, экранизация, SATRip-AVC] pb.wtf

Противостояние через торрент pb.wtf

Размер: 5.17 GB | Добавлен: 5 лет 3 мес. назад | Торрент скачан:31 раз
Смотреть онлайн Противостояние | Скачать    Ребята, помогите собрать деньги на оплату серверов!!!

11-08-2016 12:19 Противостояние Скачать торрент  

Противостояние




Год выпуска: 1985
Производство: СССР, Ленфильм (по заказу Комитета по радиовещанию и телевидению Гостелерадио СССР)
Жанр: детектив, экранизация
Продолжительность: 06:11:07 = 01:03:39 + (00:55:44 + 00:58:36) + 01:05:48 + 01:03:10 + 01:04:12
Субтитры: нет



Режиссёр: Семен Аранович



В ролях: Олег Басилашвили, Андрей Болтнев, Юрий Кузнецов, Мурман Джинория, Виктор Гоголев, Александр Казаков, В. Парменов, Эрика Дружинина, Ольга Семёнова , Александр Филиппенко, Вера Быкова-Пижель, Ольга Самошина, Олег Пальмов, Валерий Филонов, Аля Никулина, Елизавета Никищихина, Станислав Садальский, Талгат Нигматулин, Галина Макарова, Котэ (Константин) Махарадзе, Юрий Ступаков, Сергей Бехтерев, Арцруни Манукян, Эльвира Колотухина, Наталья Сайко, Наталья Лабурцева, Тамара Шемпель, Мария Берггольц, В. Шайдук, Виктор Старостин, Николай Ферапонтов, Владимир Головин, Витаутас Паукште.




Описание: По одноимённому произведения Юлиана Семёнова.
Сюжет протекает в двух временных линиях в 1980-е годы и в 1940-е в СССР. Совершено несколько тяжких преступлений и расследование выявляет почерк преступника, которого удалось идентифицировать, как бывшего приспешника фашистов, который в 1941 году из рядов Советской Армии перешёл на сторону врага и прошёл спецподготовку в Германии. Полковник Костенко преследует предателя, постепенно развязывая сложный клубок преступлений …












Качество: SATRip-AVC
Формат: MKV
Видео кодек: H.264
Аудио кодек: AC3
Видео: MPEG-4 AVC, 720х544,25fps,~1800 Кбит/сек,Bits/Pixel 0.184
Аудио: AC3, 48 kHz, ~192 Kbps, 2 канала



Общее
Уникальный идентификатор : 250113744385225407636932284334069545476 (0xBC2A27ACDCF62392BD323DD9C7B07A04)
Полное имя : D:\Противостояние\01 серия_Противостояние_rip by_Aleksan55.mkv
Формат : Matroska
Версия формата : Version 2
Размер файла : 908 Мбайт
Продолжительность : 1 ч. 3 м.
Общий поток : 1994 Кбит/сек
Дата кодирования : UTC 2016-08-07 05:15:53
Программа кодирования : mkvmerge v7.8.0 ('River Man') 32bit built on Apr 3 2015 12:11:22
Библиотека кодирования : libebml v1.3.1 + libmatroska v1.4.2

Видео
Идентификатор : 1
Формат : AVC
Формат/Информация : Advanced Video Codec
Профиль формата : High@L4.1
Параметр CABAC формата : Да
Параметр ReFrames формата : 12 кадров
Идентификатор кодека : V_MPEG4/ISO/AVC
Продолжительность : 1 ч. 3 м.
Битрейт : 1800 Кбит/сек
Ширина : 720 пикселей
Высота : 544 пикселя
Соотношение сторон : 4:3
Режим частоты кадров : Постоянный
Частота кадров : 25,000 кадров/сек
Цветовое пространство : YUV
Субдискретизация насыщенности : 4:2:0
Битовая глубина : 8 бит
Тип развёртки : Прогрессивная
Бит/(Пиксели*Кадры) : 0.184
Размер потока : 802 Мбайт (88%)
Библиотека кодирования : x264 core 146 r2538 121396c
Настройки программы : cabac=1 / ref=12 / deblock=1:-3:-3 / analyse=0x3:0x133 / me=umh / subme=9 / psy=1 / psy_rd=1.00:0.25 / mixed_ref=0 / me_range=32 / chroma_me=1 / trellis=2 / 8x8dct=1 / cqm=0 / deadzone=21,11 / fast_pskip=1 / chroma_qp_offset=-4 / threads=4 / lookahead_threads=4 / sliced_threads=0 / nr=0 / decimate=1 / interlaced=0 / bluray_compat=0 / constrained_intra=0 / bframes=12 / b_pyramid=2 / b_adapt=2 / b_bias=0 / direct=3 / weightb=1 / open_gop=0 / weightp=2 / keyint=250 / keyint_min=25 / scenecut=40 / intra_refresh=0 / rc_lookahead=40 / rc=2pass / mbtree=1 / bitrate=1800 / ratetol=1.0 / qcomp=0.60 / qpmin=0 / qpmax=69 / qpstep=4 / cplxblur=20.0 / qblur=0.5 / ip_ratio=1.40 / aq=1:1.20
Default : Да
Forced : Нет
Цветовой диапазон : Limited
Основные цвета : BT.601 PAL
Характеристики трансфера : BT.470 System B, BT.470 System G
Коэффициенты матрицы : BT.601

Аудио
Идентификатор : 2
Формат : AC-3
Формат/Информация : Audio Coding 3
Расширение режима : CM (complete main)
Параметр Endianness формата : Big
Идентификатор кодека : A_AC3
ПроDVDRip-AVCдолжительность : 1 ч. 3 м.
Вид битрейта : Постоянный
Битрейт : 192 Кбит/сек
Каналы : 2 канала
Расположение каналов : Front: L R
Частота : 48,0 КГц
Метод сжатия : С потерями
Размер потока : 87,4 Мбайт (10%)
Default : Да
Forced : Нет


Рекламы нет.pb.wtf



Скачать Противостояние через торрент http://s45.radikal.ru/i109/1608/20/165c5329c42a.jpg Скачать, смотреть онлайн Противостояние бесплантно в хорошем качестве Описание: По одноимённому произведения Юлиана Семёнова.Сюжет протекает в двух временных линиях в 1980-е годы и в 1940-е в СССР. Совершено ... 9.8 10 5
Торрент: Зарегистрирован [2016-08-11 12:19] · скачан: 31 раз
Статус: √ проверено
Размер: 5.17 GB
Как cкачать? Как скачать Противостояние через торрент | UTorrent

28-11-2019 20:33  

Отключить всю рекламу на сайте

11-08-2016 14:59 Противостояние Скачать торрент  

К-к-к-к-к-ротов... Помню как в фильме этого предателя лечили от заикания.pb.wtf



12-08-2016 14:55 Противостояние Скачать торрент  

фильм супер!!!басилашвили рассказывал что вырезали много .было бы еще круче !!!pb.wtf



    Дорогой пользователь! Огромная просьба, поблагодарите релизера, оцените раздачу и оставьте свои комментарий, если Вы скачали Противостояние через торрент бесплатно!
    Комментировать посты могут только пользователи прошедшие не сложную регистрацию
    Показать сообщения:    

    Противостояние через торрент
    Скачать бесплатно Противостояние
    Противостояние скачать торрент
    Противостояние смотреть онлайн
    Cкачать фильм Противостояние бесплатно
    Противостояние скачать торрент в хорошем качестве
    Противостояние смотреть онлайн бесплатно в хорошем качестве


    Вы не можете начинать темы
    Вы не можете отвечать на сообщения
    Вы не можете редактировать свои сообщения
    Вы не можете удалять свои сообщения
    Вы не можете голосовать в опросах
    Вы не можете прикреплять файлы к сообщениям
    Вы можете скачивать файлы