новый адрес
Ссылка на приватное зеркало всего за 1$. Внимание количество ограничено!!!

iTunes

1+1

iTunes

мы

WEB-DL

1

iTunes

Чернобыль

iTunes

Ральф против интернета

Лицензия

ПШазам

Лицензия

Оно 2

Лицензия

30
pack

Вам бонус

ВАЖНО

!!Акция!!

Alien_RageХит недели

RePack

Resident Evil 21

ИГРА 18+

pack

RePack

jed

!!Акция!!

Alien_Rage

RePack

fifa19

RePack

Assassins Creed: Odyssey

RePack

NEED FOR SPEED™ PAYBACK

3 сезон

9 сезон

Бесстыжие 9 сезон

Все сериалы

все сериалы на PB.wtf

RePack

FAR CRY 5
Ребята, катастрофически не хватает 1900р. для оплаты серверов за Октябрь (всвязи с блокировками трафик упал в 3 раза), 1-2р., выручайте.
  

Охота / The Hunt (Томас Винтерберг) [2012 г., драма, BDRip, Профессиональный (многоголосый)] pb.wtf

Охота через торрент pb.wtf

Размер: 1.46 GB | Добавлен: 3 года 3 мес. назад | Торрент скачан:99 раз
Скачать  

12-08-2016 16:40 Охота Скачать торрент  

Охота / The HuntГод выпуска: 2012
Страна: Дания, Швеция
Жанр: драма
Продолжительность: 01:55:28
Перевод: Профессиональный (многоголосый)
Субтитры: Отсутствуют

Режиссер: Томас Винтерберг
Продюссер: Сиссе Граум Олсен, Мортен Кауфман, Томас Винтерберг
Сценарий: Тобиас Линдхольм, Томас Винтерберг

Бюджет: $3 800 000
Премьера в мире: 20 мая 2012

лицам до 17 лет обязательно присутствие взрослого
http://www.imdb.com/title/tt2106476/



В ролях: Мадс Миккельсен, Томас Бо Ларсен, Анника Веддеркопп, Лассе Фогельстрём, Суссе Вольд
Анне Луизе Хассинг, Ларс Ранте, Александра Рапапорт

Описание: Учитель живет одинокой жизнью, все время борется за опеку над сыном. Его жизнь постепенно становится лучше, когда он находит любовь и получает хорошие новости от сына, но его новая жизнь вот-вот будет жестоко разрушена невинной ложью.

Качество: BDRip
Формат: AVI
Видео кодек: XviD
Аудио кодек: AC3
Видео: 720x304 (2.37:1), 24 fps, XviD build 65 ~1352 kbps, 0.26 bit/pixel
Аудио#1: 48 kHz, AC3 Dolby Digital, 3/2 (L,C,R,l,r) + LFE ch, ~448 kbps
скриншот  скриншот  скриншот  скриншот  скриншот  скриншот  скриншот  

General
Complete name : E:\The.Hunt.2012.BDRip_MVO.avi
Format : AVI
Format/Info : Audio Video Interleave
File size : 1.46 GiB
Duration : 1h 55mn
Overall bit rate : 1 809 Kbps
Writing application : VirtualDubMod 1.5.10.3 | www.virtualdub-fr.org || (build 2550/release)
Writing library : VirtualDubMod build 2550/release

Video
ID : 0
Format : MPEG-4 Visual
Format profile : Advanced Simple@L5
Format settings, BVOP : 2
Format settings, QPel : No
Format settings, GMC : No warppoints
Format settings, Matrix : Custom
Codec ID : XVID
Codec ID/Hint : XviD
Duration : 1h 55mn
Bit rate : 1 352 Kbps
Width : 720 pixels
Height : 304 pixels
Display aspect ratio : 2.35:1
Frame rate : 24.000 fps
Color space : YUV
Chroma subsampling : 4:2:0
Bit depth : 8 bits
Scan type : Progressive
Compression mode : Lossy
Bits/(Pixel*Frame) : 0.257
Stream size : 1.09 GiB (75%)
Writing library : XviD 65

Audio
ID : 1
Format : AC-3
Format/Info : Audio Coding 3
Mode extension : CM (complete main)
Format settings, Endianness : Big
Codec ID : 2000
Duration : 1h 55mn
Bit rate mode : Constant
Bit rate : 448 Kbps
Channel count : 6 channels
Channel positions : Front: L C R, Side: L R, LFE
Sampling rate : 48.0 KHz
Bit depth : 16 bits
Compression mode : Lossy
Stream size : 370 MiB (25%)
Alignment : Split accross interleaves
Interleave, duration : 42 ms (1.00 video frame)
Interleave, preload duration : 500 ms

pb.wtf



Скачать Охота через торрент http://i80.fastpic.ru/big/2016/0812/90/d85ec1f52878dc122955c01457a4b890.jpg Скачать фильм Охота через торрент бесплантно в хорошем качестве Описание: Учитель живет одинокой жизнью, все время борется за опеку над сыном. Его жизнь постепенно становится лучше, когда он находит ... 10 10 1
Торрент: Зарегистрирован [2016-08-12 16:40] · скачан: 99 раз
Статус: √ проверено
Размер: 1.46 GB
Как cкачать? Как скачать Охота через торрент | qTorrent

% Раздел Тема Автор DL S | L
RPG [ 36.99 GB ] Ведьмак 3: Дикая Охота / The Witcher 3: Wild Hunt - Game of the Year Edition [ RUS/ENGMULTi15] GOG Ворон Скачать
2 | 0
R.G.Resident - Игры [ 31.34 GB ] Ведьмак 3: Дикая Охота / The Witcher 3: Wild Hunt - Game of the Year Edition [Repack RUS/MULTi] Nemos Скачать
10 | 0
RPG [ 31.6 GB ] Ведьмак 3: Дикая Охота / The Witcher 3: Wild Hunt + HD Reworked Project [Repack RUS|ENG] [от xatab] bober100 Скачать
3 | 0
Ultra HD (UHD: 2K, 4K, 8K) — видео сверхвысокой чёткости [ 39.36 GB ] Охота за «Красным Октябрем» / The Hunt for Red October [1990 UHD BDRemux 2160p] [Dolby Vision TV] MVO bober100 Скачать
1 | 0
RPG [ 55 GB ] Ведьмак 3: Дикая Охота / The Witcher 3: Wild Hunt - Game of the Year Edition [ RUS / MULTI] [SteamRip] от =nemos= Nemos Скачать
5 | 1
Фильмы 2016 [DVDrip, WEB-DLRip, HDrip] (DUB, MVO) [ 2.05 GB ] Охота на дикарей / Hunt for the Wilderpeople [2016 BDRip-AVC] DUB [] от ExKinoRay Enigma2010 Скачать
1 | 0
RPG [ 33.55 GB ] Ведьмак 3: Дикая Охота / The Witcher 3: Wild Hunt - Game of the Year Edition [Repack RUS] от =nemos= Nemos Скачать
3 | 0

28-11-2019 20:33  

Отключить всю рекламу на сайте

13-08-2016 01:42 Охота Скачать торрент  

Как стоящий внимания фильм?pb.wtf



    Дорогой пользователь! Огромная просьба, поблагодарите релизера, оцените раздачу и оставьте свои комментарий, если Вы скачали Охота через торрент бесплатно! Внесите свою лепту в развитие PiratBit!
    Комментировать посты могут только пользователи прошедшие не сложную регистрацию
    Показать сообщения:    

    Охота через торрент
    Скачать бесплатно Охота
    Охота скачать торрент
    Охота смотреть онлайн
    Cкачать фильм Охота бесплатно
    Охота скачать торрент в хорошем качестве
    Охота смотреть онлайн бесплатно в хорошем качестве


    Вы не можете начинать темы
    Вы не можете отвечать на сообщения
    Вы не можете редактировать свои сообщения
    Вы не можете удалять свои сообщения
    Вы не можете голосовать в опросах
    Вы не можете прикреплять файлы к сообщениям
    Вы можете скачивать файлы