Ссылка на приватное зеркало нашего сайта всего за 1$. Внимание количество ограничено!!!

2 сезон

iTunes

1 сезон

1

2 сезон

2 сезон

iTunes

1 сезон

RePack

30

Новинка

ВАЖНО

ИГРА 18+

pack

RePack

MK11
pack

Забери бонус

RePack

jed

!!Акция!!

Alien_Rage

RePack

fifa19

RePack

Assassins Creed: Odyssey

RePack

NEED FOR SPEED™ PAYBACK

4 сезон

9 сезон

Бесстыжие 9 сезон

Все сериалы

все сериалы на PB.wtf

RePack

FAR CRY 5
  

Тринадцать / Thirteen / Сезон: 1 / Серии 1-5 из 5 (Ванесса Касвиль, Чина Му-Ен) [2016, Великобритания, Драма, детектив, HDTVRip] DVO [ViruseProject] pb.wtf

Тринадцать через торрент pb.wtf

Размер: 3.37 GB | Добавлен: 4 года 3 мес. назад | Торрент скачан:51 раз
Скачать  

13-08-2016 02:13 Тринадцать Скачать торрент  


Тринадцать / Thirteen



  • Год выпуска: 2016
  • Страна: Великобритания
  • Жанр: драма
  • Продолжительность: ~ 00:55:00 (Серия)
  • Перевод: Профессиональный двухголосый [ViruseProject]
  • Режиссер: Ванесса Касвиль, Чина Му-Ен
  • В ролях:
    Джоди Комер, Наташа Литтл, Стюарт Грэхэм, Джо Лейтон, Кэтрин Роуз Морли, Элеонора Вулд, Анерин Барнард, Кеми-Бо Джейкобс, Николас Фаррелл


  • Айви Моксем была похищена в 2003-м году в возрасте 13-ти лет, а еще через 13 лет ей удалось сбежать. Теперь это 26-ти летняя женщина с разумом 13-ти летней девочки. Мир вокруг полностью изменился, родители расстались, бывший парень женат, а младшая сестра выходит замуж. Тем временем у полицейских, проводящих возобновленное расследование похищения, возникает очень много вопросов, в частности - действительно ли всё было так, как рассказывает Айви? Новая остросюжетная криминальная драма от канала BBC Three.
  • Рейтинг:



  • Качество: HDTVRip
  • Формат: :AVI
  • Видео кодек: XviD
  • Аудио кодек: MP3
  • Видео: 1429 Кбит/сек, 720*400 (16:9), в 25,000 кадров/сек, MPEG-4 Visual (XviD)
  • Аудио №1: Русский 192 Кбит/сек, 48,0 КГц, 2 канала, MPEG Audio (MP3)

    Код:

    Внимание! Раздача ведётся путём добавления новых серий; при каждом добавлении создаётся новый торрент. Чтобы начать докачку новой серии, пользователям необходимо сделать следующее:
    (1) остановить скачивание,
    (2) удалить старый торрент у себя из клиента (старые серии удалять не надо),
    (3) скачать новый торрент и запустить его у себя в клиенте вместо старого, при этом указать клиенту путь в старую папку куда и должно происходить скачивание новых серий.
    Ваш клиент при этом должен произвести хеширование (проверку) старой папки (если не производит сам - помогите ему сделать это), и будет докачивать только те серии которых у вас ещё нет. Старые серии при этом не удаляются, а продолжают раздаваться!
    Eсли вы уже удалили старые серии, то предотвратить повторную закачку старых серий можно, отжав галочку в соответсвующих местах при запуске нового торрента. По возможности, желательно не удалять старые серии как можно дольше чтобы релизёр не столько продолжал раздавать старые серии, а смог сконцентрироваться на новых.


    Код:

    Общее
    Полное имя                               : H:\Thirteen.S01.ViruseProject\Thirteen.S01E02.ViruseProject.avi
    Формат                                   : AVI
    Формат/Информация                        : Audio Video Interleave
    Размер файла                             : 681 Мбайт
    Продолжительность                        : 58 м.
    Общий поток                              : 1630 Кбит/сек
    Программа кодирования                    : Lavf52.39.2
    Библиотека кодирования                   : VirtualDub build 35491/release

    Видео
    Идентификатор                            : 0
    Формат                                   : MPEG-4 Visual
    Профиль формата                          : Advanced Simple@L5
    Параметр BVOP формата                    : 1
    Параметр QPel формата                    : Нет
    Параметр GMC формата                     : Без точки перехода
    Параметр матрицы формата                 : Default (MPEG)
    Идентификатор кодека                     : XVID
    Идентификатор кодека/Подсказка           : XviD
    Продолжительность                        : 58 м.
    Битрейт                                  : 1429 Кбит/сек
    Ширина                                   : 720 пикселей
    Высота                                   : 400 пикселей
    Соотношение сторон                       : 16:9
    Частота кадров                           : 25,000 кадров/сек
    Цветовое пространство                    : YUV
    Субдискретизация насыщенности            : 4:2:0
    Битовая глубина                          : 8 бит
    Тип развёртки                            : Прогрессивная
    Метод сжатия                             : С потерями
    Бит/(Пиксели*Кадры)                      : 0.198
    Размер потока                            : 597 Мбайт (88%)
    Библиотека кодирования                   : XviD 1.2.1 (UTC 2008-12-04)

    Аудио
    Идентификатор                            : 1
    Формат                                   : MPEG Audio
    Версия формата                           : Version 1
    Профиль формата                          : Layer 3
    Режим                                    : Joint stereo
    Расширение режима                        : MS Stereo
    Идентификатор кодека                     : 55
    Идентификатор кодека/Подсказка           : MP3
    Продолжительность                        : 58 м.
    Вид битрейта                             : Постоянный
    Битрейт                                  : 192 Кбит/сек
    Каналы                                   : 2 канала
    Частота                                  : 48,0 КГц
    Метод сжатия                             : С потерями
    Размер потока                            : 80,2 Мбайт (12%)
    Выравнивание                             : Разделение по промежуткам
    Продолжительность промежутка             : 40  мс. (1,00 видеокадр)
    Время предзагрузки промежутка            : 500  мс.




    Скриншоты:
    скриншот   скриншот   скриншот   скриншот   скриншот   скриншот   скриншот  
    скриншот  

    Раздача ведётся путём добавления новых серий. Добавлена 5 серия (27.08.2016).Просьба перекачать торрент файл.

    pb.wtf



  • Скачать Тринадцать через торрент http://pic1.kartinco.top/images/10/3z2hw.jpg Скачать фильм Тринадцать через торрент бесплантно в хорошем качестве qw.png Айви Моксем была похищена в 2003-м году в возрасте 13-ти лет, а еще через 13 лет ей удалось сбежать. Теперь это 26-ти летняя ... 10 10 7
    Info! Золотая раздача, скачанное не засчитывается.
    Торрент: Зарегистрирован [2016-08-27 01:48] · скачан: 51 раз
    Статус: √ проверено
    Размер: 3.37 GB
    Как cкачать? Как скачать Тринадцать через торрент | qTorrent

    % Раздел Тема Автор DL S | L
    Зарубежные сериалы [ 3.09 GB ] Тринадцать / Thirteen / 1 сезон / 1-5 из 5 серий [2016 WEB-DLRip] MVO [Студия "Позитив"] bober100 Скачать
    1 | 0
    Зарубежные сериалы [ 6.23 GB ] Тринадцать / Thirteen / Сезон: 1 / Серии 1-5 из 5 [2016 HDTVRip 720р] DVO [ViruseProject] GEKADOL Скачать
    1 | 0


    Последний раз редактировалось: GEKADOL (2016-08-27 01:52), всего редактировалось 4 раз(а)

    28-11-2019 20:33  

    Отключить всю рекламу на сайте

    13-08-2016 08:03 Тринадцать Скачать торрент  

    13 лет
    бывший парень
    ЗПР
    и это всё "в одном флаконе"...pb.wtf



    16-08-2016 13:07 Тринадцать Скачать торрент  

    будет ли многоголосый перевод?pb.wtf



    22-08-2016 01:22 Тринадцать Скачать торрент  

    Антонн писал(а):

    будет ли многоголосый перевод?

    Мало вероятно pb.wtf



      Дорогой пользователь! Огромная просьба, поблагодарите релизера, оцените раздачу и оставьте свои комментарий, если Вы скачали Тринадцать через торрент бесплатно! Внесите свою лепту в развитие PiratBit!
      Комментировать посты могут только пользователи прошедшие не сложную регистрацию
      Показать сообщения:    

      Тринадцать через торрент
      Скачать бесплатно Тринадцать
      Тринадцать скачать торрент
      Тринадцать смотреть онлайн
      Cкачать фильм Тринадцать бесплатно
      Тринадцать скачать торрент в хорошем качестве
      Тринадцать смотреть онлайн бесплатно в хорошем качестве


      Вы не можете начинать темы
      Вы не можете отвечать на сообщения
      Вы не можете редактировать свои сообщения
      Вы не можете удалять свои сообщения
      Вы не можете голосовать в опросах
      Вы не можете прикреплять файлы к сообщениям
      Вы можете скачивать файлы