Ссылка на приватное зеркало нашего сайта всего за 1$. Внимание количество ограничено!!!

2 сезон

iTunes

1 сезон

1

iTunes

iTunes

iTunes

1 сезон

RePack

30

ИГРА 18+

pack

ВАЖНО

!!Акция!!

Alien_RageХит недели

RePack

MK11
pack

Забери бонус

RePack

jed

!!Акция!!

Alien_Rage

RePack

fifa19

RePack

Assassins Creed: Odyssey

RePack

NEED FOR SPEED™ PAYBACK

4 сезон

9 сезон

Бесстыжие 9 сезон

Все сериалы

все сериалы на PB.wtf

RePack

FAR CRY 5
  

Зверополис / Zootopia (Байрон Ховард, Рич Мур, Джаред Буш) [2016 г., мультфильм, боевик, комедия, криминал, детектив, приключения, семейный, HDRip, Дубляж "BD EUR"] pb.wtf

Зверополис через торрент pb.wtf

Размер: 2.18 GB | Добавлен: 4 года 2 мес. назад | Торрент скачан:135 раз
Скачать  

13-08-2016 08:19 Зверополис Скачать торрент  

Зверополис / Zootopia
Год выпуска: 2016
Страна: США / Walt Disney Pictures, Walt Disney Animation Studios
Жанр: мультфильм, боевик, комедия, криминал, детектив, приключения, семейный
Продолжительность: 01:48:44
Перевод: Дубляж (BD EUR)

Режиссер: Байрон Ховард, Рич Мур, Джаред Буш



В ролях: Джиннифер Гудвин, Джейсон Бейтман, Идрис Эльба, Дженни Слейт, Нейт Торренс, Бонни Хант, Дон Лейк, Томми Чонг, Дж.К. Симмонс, Октавия Спенсер

Описание: Добро пожаловать в Зверополис — современный город, населенный самыми разными животными, от огромных слонов до крошечных мышек. Зверополис разделен на районы, полностью повторяющие естественную среду обитания разных жителей — здесь есть и элитный район Площадь Сахары и неприветливый Тундратаун. В этом городе появляется новый офицер полиции, жизнерадостная зайчиха Джуди Хоппс, которая с первых дней работы понимает, как сложно быть маленькой и пушистой среди больших и сильных полицейских. Джуди хватается за первую же возможность проявить себя, несмотря на то, что ее партнером будет болтливый хитрый лис Ник Уайлд. Вдвоем им предстоит раскрыть сложное дело, от которого будет зависеть судьба всех обитателей Зверополиса.

Качество: HDRip
Формат: AVI
Видео кодек: XviD
Аудио кодек: AC3
Видео: 720x304 (2.37:1), 23.976 fps, XviD build 50 ~2410 kbps avg, 0.46 bit/pixel
Аудио: 48 kHz, AC3 Dolby Digital, 3/2 (L,C,R,l,r) + LFE ch, ~448 kbps

Общее
Полное имя : F:\кино\Зверополис.2016.D.HDRip.avi
Формат : AVI
Формат/Информация : Audio Video Interleave
Профиль формата : OpenDML
Размер файла : 2,18 Гбайт
Продолжительность : 1 ч. 48 м.
Общий поток : 2865 Кбит/сек
Программа кодирования : VirtualDubMod 1.5.10.3 | www.virtualdub-fr.org || (build 2550/release)
Библиотека кодирования : VirtualDubMod build 2550/release

Видео
Идентификатор : 0
Формат : MPEG-4 Visual
Профиль формата : Advanced Simple@L5
Параметр BVOP формата : 1
Параметр QPel формата : Нет
Параметр GMC формата : Без точки перехода
Параметр матрицы формата : Default (MPEG)
Идентификатор кодека : XVID
Идентификатор кодека/Подсказка : XviD
Продолжительность : 1 ч. 48 м.
Битрейт : 2405 Кбит/сек
Ширина : 720 пикселей
Высота : 304 пикселя
Соотношение сторон : 2,35:1
Частота кадров : 23,976 (23976/1000) кадра/сек
Цветовое пространство : YUV
Субдискретизация насыщенности : 4:2:0
Битовая глубина : 8 бит
Тип развёртки : Прогрессивная
Метод сжатия : С потерями
Бит/(Пиксели*Кадры) : 0.458
Размер потока : 1,83 Гбайт (84%)
Библиотека кодирования : XviD 1.2.1 (UTC 2008-12-04)

Аудио
Идентификатор : 1
Формат : AC-3
Формат/Информация : Audio Coding 3
Расширение режима : CM (complete main)
Параметр Endianness формата : Big
Идентификатор кодека : 2000
Продолжительность : 1 ч. 48 м.
Вид битрейта : Постоянный
Битрейт : 448 Кбит/сек
Каналы : 6 каналов
Расположение каналов : Front: L C R, Side: L R, LFE
Частота : 48,0 КГц
Частота кадров : 31,250 кадров/сек (1536 spf)
Метод сжатия : С потерями
Размер потока : 348 Мбайт (16%)
Выравнивание : Разделение по промежуткам
Продолжительность промежутка : 42 мс. (1,00 видеокадр)
Время предзагрузки промежутка : 500 мс.

pb.wtf



Скачать Зверополис через торрент http://pic.kartinco.top/images/11/2esbd.jpg Скачать фильм Зверополис через торрент бесплантно в хорошем качестве Описание: Добро пожаловать в Зверополис — современный город, населенный самыми разными животными, от огромных слонов до крошечных мышек. ... 10 10 1
Торрент: Зарегистрирован [2016-08-13 08:19] · скачан: 135 раз
Статус: √ проверено
Размер: 2.18 GB
Как cкачать? Как скачать Зверополис через торрент | qTorrent

% Раздел Тема Автор DL S | L
Ultra HD (UHD: 2K, 4K, 8K) [ 13.05 GB ] Зверополис / Zootopia [2016 Мультфильм полнометражный детский UHD BDRip 2160p] DUB [] +AVO bober100 Скачать
2 | 0
Ultra HD (UHD: 2K, 4K, 8K) [ 40.46 GB ] Зверополис / Zootopia [2016 Мультфильм полнометражный детский UHD BDRemux 2160p] DUB [] bober100 Скачать
1 | 0
Мультфильмы (48-60 fps) [ 3.73 GB ] Зверополис / Zootopia [2016 мультфильм BDRip-HEVC 720p / 60 FPS Оригинал] Tiberiumsun69 Скачать
30 | 0
Иностранные мультфильмы [ 1.46 GB ] Зверополис / Zootopia [2016 мультфильм BDRip-AVC] sokol_ok Скачать
6 | 0
Иностранные мультфильмы [ 740 MB ] Зверополис / Zootopia [2016 мультфильм BDRip-AVC] sokol_ok Скачать
1 | 0
Иностранные мультфильмы [ 2.16 GB ] Зверополис / Zootopia [2016 мультфильм BDRip-AVC] sokol_ok Скачать
2 | 0
R.G.Resident - Мультфильмы, Видео [ 2.62 GB ] Зверополис / Zootopia [2016 мультфильм BDRip-AVC MVO ] R.G.Resident schultz Скачать
1 | 0

28-11-2019 20:33  

Отключить всю рекламу на сайте

    Дорогой пользователь! Огромная просьба, поблагодарите релизера, оцените раздачу и оставьте свои комментарий, если Вы скачали Зверополис через торрент бесплатно! Внесите свою лепту в развитие PiratBit!
    Комментировать посты могут только пользователи прошедшие не сложную регистрацию
    Показать сообщения:    

    Зверополис через торрент
    Скачать бесплатно Зверополис
    Зверополис скачать торрент
    Зверополис смотреть онлайн
    Cкачать фильм Зверополис бесплатно
    Зверополис скачать торрент в хорошем качестве
    Зверополис смотреть онлайн бесплатно в хорошем качестве


    Вы не можете начинать темы
    Вы не можете отвечать на сообщения
    Вы не можете редактировать свои сообщения
    Вы не можете удалять свои сообщения
    Вы не можете голосовать в опросах
    Вы не можете прикреплять файлы к сообщениям
    Вы можете скачивать файлы