новый адрес
Ссылка на приватное зеркало всего за 1$. Внимание количество ограничено!!!

iTunes

1+1

iTunes

мы

WEB-DL

1

iTunes

Чернобыль

iTunes

Ральф против интернета

Лицензия

ПШазам

Лицензия

Оно 2

Лицензия

30
pack

Вам бонус

ВАЖНО

!!Акция!!

Alien_RageХит недели

RePack

Resident Evil 21

ИГРА 18+

pack

RePack

jed

!!Акция!!

Alien_Rage

RePack

fifa19

RePack

Assassins Creed: Odyssey

RePack

NEED FOR SPEED™ PAYBACK

3 сезон

9 сезон

Бесстыжие 9 сезон

Все сериалы

все сериалы на PB.wtf

RePack

FAR CRY 5
Ребята, катастрофически не хватает 1900р. для оплаты серверов за Октябрь (всвязи с блокировками трафик упал в 3 раза), 1-2р., выручайте.
  

Что ни день, то неприятности / Trouble Every Day (Клер Дени) [2001 г., ужасы, триллер, драма, DVDRip, Профессиональный (многоголосый)] pb.wtf

Что ни день, то неприятности через торрент pb.wtf

Качают: 1 [ 0 KB/s ]
Размер: 1.37 GB | Добавлен: 3 года 3 мес. назад | Торрент скачан:35 раз
Скачать  

13-08-2016 15:05 Что ни день, то неприятности Скачать торрент  


Что ни день то неприятности / Trouble Every Day
Год выпуска: 2001
Страна: Франция, Германия, Япония
Жанр: ужасы, триллер, драма
Продолжительность: 01:36:42
Перевод: Профессиональный (многоголосый)
Субтитры: Отсутствуют

Режиссер: Клер Дени
Продюссер: Жорж Бенаюн, Филипп Лижеуа, Жан-Мишель Рей
Сценарий: Клер Дени, Жан-Поль Фаржо

Премьера в мире: 13 мая 2001

лицам до 18 лет обязательно присутствие взрослого
http://imdb.snick.ru/movie/tt0204700



В ролях: Винсент Галло, Беатрис Даль, Триша Весси, Алекс Дека, Флоренс Лорье, Николя Дювошель, Рафаэь Нил, Жозе Гарсия, Марилу Марини.

Описание: Молодожены Шэйн и Джун Браун приезжают в Париж на медовый месяц. Но мысли Шэйна далеки от романтики, ибо он стал жертвой безрассудных экспериментов французского доктора Лео Семено, изучавшего особенности полового влечения у людей, в результате которых он теперь вынужден вступать в жестокие сексуальные отношения с незнакомыми людьми, убивать их и поедать во время полового акта.

Прочесывая парижские закоулки и клиники, он надеется найти ученого, но судьба сталкивает его с окровавленной Корой, женой Лео, пораженной той же страшной болезнью. С трудом подавляя в себе жажду крови, Шэйн пытается помочь Коре и себе, ведь для них фраза «Я так тебя люблю, что съел бы тебя живьем» имеет совсем иной смысл…

Качество: DVDRip
Формат: AVI
Видео кодек: XviD
Аудио кодек: AC3
Видео: 688x384 (1.79:1), 25 fps, XviD 1.2 beta 1 (build 43) ~1248 kbps avg, 0.19 bit/pixel
Аудио#1: Русский: 48 kHz, AC3 Dolby Digital, 3/2 (L,C,R,l,r) + LFE ch, ~384 kbps [Профессиональный (многоголосый, закадровый)]
Аудио#2: Французский: 48 kHz, AC3 Dolby Digital, 3/2 (L,C,R,l,r) + LFE ch, ~384 kbps [Оригинал]
скриншот  скриншот  скриншот  скриншот  скриншот  скриншот  

Код:

General
Complete name                            : E:\Chto.ni.den.to.nepriyatnosti.avi
Format                                   : AVI
Format/Info                              : Audio Video Interleave
File size                                : 1.37 GiB
Duration                                 : 1h 36mn
Overall bit rate                         : 2 025 Kbps
Writing application                      : VirtualDubMod 1.5.4.1 (build 2178/release)
Writing library                          : VirtualDubMod build 2178/release

Video
ID                                       : 0
Format                                   : MPEG-4 Visual
Format profile                           : Advanced Simple@L5
Format settings, BVOP                    : 1
Format settings, QPel                    : No
Format settings, GMC                     : No warppoints
Format settings, Matrix                  : Custom
Codec ID                                 : XVID
Codec ID/Hint                            : XviD
Duration                                 : 1h 36mn
Bit rate                                 : 1 166 Kbps
Width                                    : 688 pixels
Height                                   : 384 pixels
Display aspect ratio                     : 16:9
Frame rate                               : 25.000 fps
Color space                              : YUV
Chroma subsampling                       : 4:2:0
Bit depth                                : 8 bits
Scan type                                : Progressive
Compression mode                         : Lossy
Bits/(Pixel*Frame)                       : 0.177
Stream size                              : 807 MiB (58%)
Writing library                          : XviD 1.2.0SMP (UTC 2006-01-08)

Audio #1
ID                                       : 1
Format                                   : AC-3
Format/Info                              : Audio Coding 3
Mode extension                           : CM (complete main)
Format settings, Endianness              : Big
Codec ID                                 : 2000
Duration                                 : 1h 36mn
Bit rate mode                            : Constant
Bit rate                                 : 384 Kbps
Channel count                            : 6 channels
Channel positions                        : Front: L C R, Side: L R, LFE
Sampling rate                            : 48.0 KHz
Bit depth                                : 16 bits
Compression mode                         : Lossy
Stream size                              : 266 MiB (19%)
Alignment                                : Split accross interleaves
Language                                 : Russian

Audio #2
ID                                       : 2
Format                                   : AC-3
Format/Info                              : Audio Coding 3
Mode extension                           : CM (complete main)
Format settings, Endianness              : Big
Codec ID                                 : 2000
Duration                                 : 1h 36mn
Bit rate mode                            : Constant
Bit rate                                 : 384 Kbps
Channel count                            : 6 channels
Channel positions                        : Front: L C R, Side: L R, LFE
Sampling rate                            : 48.0 KHz
Bit depth                                : 16 bits
Compression mode                         : Lossy
Stream size                              : 266 MiB (19%)
Alignment                                : Split accross interleaves
Language                                 : English


pb.wtf



Скачать Что ни день, то неприятности через торрент http://s019.radikal.ru/i613/1608/92/776db65769ee.jpg Скачать фильм Что ни день, то неприятности через торрент бесплантно в хорошем качестве Описание: Молодожены Шэйн и Джун Браун приезжают в Париж на медовый месяц. Но мысли Шэйна далеки от романтики, ибо он стал жертвой ... 7.8 10 4
Торрент: Зарегистрирован [2016-08-13 15:05] · скачан: 35 раз
Статус: √ проверено
Размер: 1.37 GB
Как cкачать? Как скачать Что ни день, то неприятности через торрент | qTorrent

28-11-2019 20:33  

Отключить всю рекламу на сайте

13-08-2016 15:12 Что ни день, то неприятности Скачать торрент  

Дак я не понял фильм про богомолов что ли.....pb.wtf



13-08-2016 15:16 Что ни день, то неприятности Скачать торрент  

походу из той же серии что и человеческая многоножкаpb.wtf



13-08-2016 18:10 Что ни день, то неприятности Скачать торрент  

Фильм про пьяные похождения) pb.wtf



    Дорогой пользователь! Огромная просьба, поблагодарите релизера, оцените раздачу и оставьте свои комментарий, если Вы скачали Что ни день, то неприятности через торрент бесплатно! Внесите свою лепту в развитие PiratBit!
    Комментировать посты могут только пользователи прошедшие не сложную регистрацию
    Показать сообщения:    

    Что ни день, то неприятности через торрент
    Скачать бесплатно Что ни день, то неприятности
    Что ни день, то неприятности скачать торрент
    Что ни день, то неприятности смотреть онлайн
    Cкачать фильм Что ни день, то неприятности бесплатно
    Что ни день, то неприятности скачать торрент в хорошем качестве
    Что ни день, то неприятности смотреть онлайн бесплатно в хорошем качестве


    Вы не можете начинать темы
    Вы не можете отвечать на сообщения
    Вы не можете редактировать свои сообщения
    Вы не можете удалять свои сообщения
    Вы не можете голосовать в опросах
    Вы не можете прикреплять файлы к сообщениям
    Вы можете скачивать файлы