Ссылка на приватное зеркало всего за 1$. Внимание количество ограничено!!!

iTunes

iTunes

iTunes

1

iTunes

iTunes

iTunes

iTunes

iTunes

30
pack

$ от Little Big

ВАЖНО

!!Акция!!

Alien_RageХит недели

RePack

Resident Evil 21

ИГРА 18+

pack

RePack

jed

!!Акция!!

Alien_Rage

RePack

fifa19

RePack

Assassins Creed: Odyssey

RePack

NEED FOR SPEED™ PAYBACK

4 сезон

9 сезон

Бесстыжие 9 сезон

Все сериалы

все сериалы на PB.wtf

RePack

FAR CRY 5
  

Равные / Equals (Дрейк Доримус) [2015 г., фантастика, драма, мелодрама, WEB-DL 1080p] Дубляж [iTunes] pb.wtf

Равные через торрент pb.wtf

Размер: 3.91 GB | Добавлен: 3 года 10 мес. назад | Торрент скачан:214 раз
Скачать  

14-08-2016 10:40 Равные Скачать торрент  

Равные / EqualsГод выпуска: 2015
Страна: США
Жанр: фантастика, драма, мелодрама
Продолжительность: 01:41:54
Перевод: Дубляж [iTunes]
Субтитры: Английские

Режиссер: Дрейк Доримус
Продюссер: Чип Диггинс, Майкл А. Прусс, Энн Рурк
Сценарий: Нэйтан Паркер, Дрейк Доримус

Премьера в мире: 5 сентября 2015



В ролях: Николас Холт, Кристен Стюарт, Гай Пирс, Джеки Уивер, Тоби Хасс, Дэвид Селби, Кейт Лин Шейл, Ребекка Хэзлвуд, Тео Ю, Аврора Периньо

Описание: Фильм «Равные» рассказывает историю Сайласа, который живет в будущем, в обществе, названном «Коллектив». Жители этого современного мира - новое поколение людей, называемое «Равными». Равные - это мирные, спокойные, вежливые и справедливые люди, и жизнь в «Коллективе» идеальна. В нем не существует ни бедности, ни жадности, ни насилия, ни эмоций... Но над обществом нависает новая угроза: заболевание «SOS» или «Синдром Общественной Сознательности», жертвы которого подвергаются всему, чего, как они думали, избежали: депрессия, уязвимость, страх, любовь. Если правительство обнаружит человека, зараженного «SOS», его сразу же заберут в Нору, после чего этого человека уже никто и никогда не увидит.
Когда главный герой обнаруживает, что он тоже заражен, он становится изгоем, но замечает одного человека, который, как ему кажется, понимает через что ему приходится проходить. В это время правительство заявляет о том, что лекарство от болезни «включенных эмоций» было найдено, и главные герои вынуждены искать способ выжить.

Качество: WEB-DL 1080p
Формат: MKV
Видео: AVC, 4616 Кбит/с, 1920x1032, 23,976 fps
Аудио 1: русский, AC3, 6 ch, 384 Кбит/с, 48,0 КГц - Дубляж [iTunes]
Аудио 2: английский, AC3, 6 ch, 384 Кбит/с, 48,0 КГц
Общее
Уникальный идентификатор : 190872844975935131463380144059694205063 (0x8F98C5D451351CEB8E8A4E4862484887)
Полное имя : E:\Equals.2015.D.1080p.WEB-DL.mkv
Формат : Matroska
Версия формата : Version 2
Размер файла : 3,91 Гбайт
Продолжительность : 1 ч. 41 м.
Общий поток : 5493 Кбит/сек
Дата кодирования : UTC 2016-08-24 18:04:20
Программа кодирования : mkvmerge v7.8.0 ('River Man') 32bit built on Apr 3 2015 12:11:22
Библиотека кодирования : libebml v1.3.1 + libmatroska v1.4.2

Видео
Идентификатор : 1
Формат : AVC
Формат/Информация : Advanced Video Codec
Профиль формата : High@L4
Параметр CABAC формата : Да
Параметр ReFrames формата : 4 кадра
Идентификатор кодека : V_MPEG4/ISO/AVC
Продолжительность : 1 ч. 41 м.
Битрейт : 4616 Кбит/сек
Ширина : 1920 пикселей
Высота : 1032 пикселя
Соотношение сторон : 1,85:1
Режим частоты кадров : Постоянный
Частота кадров : 23,976 кадра/сек
Цветовое пространство : YUV
Субдискретизация насыщенности : 4:2:0
Битовая глубина : 8 бит
Тип развёртки : Прогрессивная
Бит/(Пиксели*Кадры) : 0.097
Размер потока : 3,29 Гбайт (84%)
Заголовок : Equals.2015.1080p.WEB-DL.DD5.1.H264-FGT
Язык : English
Default : Да
Forced : Нет
Цветовой диапазон : Limited
Основные цвета : BT.709
Характеристики трансфера : BT.709
Коэффициенты матрицы : BT.709

Аудио #1
Идентификатор : 3
Формат : AC-3
Формат/Информация : Audio Coding 3
Расширение режима : CM (complete main)
Параметр Endianness формата : Big
Идентификатор кодека : A_AC3
Продолжительность : 1 ч. 41 м.
Вид битрейта : Постоянный
Битрейт : 384 Кбит/сек
Каналы : 6 каналов
Расположение каналов : Front: L C R, Side: L R, LFE
Частота : 48,0 КГц
Частота кадров : 31,250 кадров/сек (1536 spf)
Метод сжатия : С потерями
Размер потока : 280 Мбайт (7%)
Заголовок : iTunes
Язык : Russian
Default : Да
Forced : Нет

Аудио #2
Идентификатор : 4
Формат : AC-3
Формат/Информация : Audio Coding 3
Расширение режима : CM (complete main)
Параметр Endianness формата : Big
Идентификатор кодека : A_AC3
Продолжительность : 1 ч. 41 м.
Вид битрейта : Постоянный
Битрейт : 384 Кбит/сек
Каналы : 6 каналов
Расположение каналов : Front: L C R, Side: L R, LFE
Частота : 48,0 КГц
Частота кадров : 31,250 кадров/сек (1536 spf)
Метод сжатия : С потерями
Размер потока : 280 Мбайт (7%)
Язык : English
Default : Нет
Forced : Нет

Текст
Идентификатор : 2
Формат : UTF-8
Идентификатор кодека : S_TEXT/UTF8
Идентификатор кодека/Информация : UTF-8 Plain Text
Язык : English
Default : Нет
Forced : Нет

Меню
00:00:00.000 : en:1
00:09:11.426 : en:2
00:18:49.253 : en:3
00:28:28.498 : en:4
00:38:46.532 : en:5
00:48:54.264 : en:6
01:00:51.814 : en:7
01:09:38.257 : en:8
01:19:58.794 : en:9
01:29:42.419 : en:10
01:33:59.634 : en:11

pb.wtf
!-Lexx- писал(а):

Торрент перезалит 24.08.2016 в 21:40 МСК, замена на дубляж iTunes.



Скачать Равные через торрент http://pic1.kartinco.top/images/10/z3qbd.jpg Скачать фильм Равные через торрент бесплантно в хорошем качестве Описание: Фильм «Равные» рассказывает историю Сайласа, который живет в будущем, в обществе, названном «Коллектив». Жители этого ... 7.9 10 17
Info! Золотая раздача, скачанное не засчитывается.
Торрент: Зарегистрирован [2016-08-24 18:40] · скачан: 214 раз
Статус: √ проверено
Размер: 3.91 GB
Как cкачать? Как скачать Равные через торрент | qTorrent

% Раздел Тема Автор DL S | L
Фильмы [HD 720p, 1080p] (Хороший звук DUB, MVO) [ 14.72 GB ] Равные / Equals [2015 BDRip 1080p] - [] -Lexx- Скачать
1 | 0
Фильмы 2015 [DVDrip, WEB-DLRip, HDrip] [ 2.05 GB ] Равные / Equals [USA Transfer] [2015 HDRip ""] coc900 Скачать
1 | 0
R.G. Resident & PiratVoice - Фильмы, Видео [ 1.45 GB ] Равные / Equals [2015 BDRip-AVC - [] / US Transfer] R.G.Resident schultz Скачать
1 | 0
Фильмы (Blu-ray, BD-Remux, HDDVD) [ 28.39 GB ] Равные / Equals [2015 BDRemux 1080p] от ExKinoRay / US Transfer / Russian Mafia Скачать
1 | 0
Фильмы [HD 720p, 1080p] (Хороший звук DUB, MVO) [ 9.89 GB ] Равные / Equals [2015 BDRip 720p [] smaster Скачать
1 | 0
Фильмы 2015 [DVDrip, WEB-DLRip, HDrip] [ 1.46 GB ] Равные / Equals [2015 BDRip - [] Twi7ter Скачать
1 | 0
Фильмы без перевода [ 13.17 GB ] Равные / Equals [2015 BDRip 1080p [Оригинал] smaster Скачать
1 | 0


Последний раз редактировалось: -Lexx- (2016-08-24 18:39), всего редактировалось 1 раз

28-11-2019 20:33  

Отключить всю рекламу на сайте

15-08-2016 03:37 Равные Скачать торрент  

Не плохой фильм на раз пойдёт взглянуть)pb.wtf



15-08-2016 19:48 Равные Скачать торрент  

Ерунда полная, pb.wtf



16-08-2016 18:37 Равные Скачать торрент  

Что? Эквилибриум, ты ли это?

P.S. Эквилибриум лучше пересмотрите ещё раз, и то интереснее.pb.wtf



24-08-2016 19:09 Равные Скачать торрент  

лажа скучнаяpb.wtf



24-08-2016 19:36 Равные Скачать торрент  

так и не осилил, не смог досмотреть до конца... патока какая-то тягучая...pb.wtf



24-08-2016 21:14 Равные Скачать торрент  

bober100 писал(а):

Не плохой фильм на раз пойдёт взглянуть)

Большинство не согласныpb.wtf



26-08-2016 02:17 Равные Скачать торрент  

zra писал(а):

bober100 писал(а):

Не плохой фильм на раз пойдёт взглянуть)

Большинство не согласны

на вкус и цвет как говоритсяpb.wtf



    Дорогой пользователь! Огромная просьба, поблагодарите релизера, оцените раздачу и оставьте свои комментарий, если Вы скачали Равные через торрент бесплатно! Внесите свою лепту в развитие PiratBit!
    Комментировать посты могут только пользователи прошедшие не сложную регистрацию
    Показать сообщения:    

    Равные через торрент
    Скачать бесплатно Равные
    Равные скачать торрент
    Равные смотреть онлайн
    Cкачать фильм Равные бесплатно
    Равные скачать торрент в хорошем качестве
    Равные смотреть онлайн бесплатно в хорошем качестве


    Вы не можете начинать темы
    Вы не можете отвечать на сообщения
    Вы не можете редактировать свои сообщения
    Вы не можете удалять свои сообщения
    Вы не можете голосовать в опросах
    Вы не можете прикреплять файлы к сообщениям
    Вы можете скачивать файлы