Ссылка на приватное зеркало нашего сайта всего за 1$. Внимание количество ограничено!!!

2 сезон

iTunes

1 сезон

1

iTunes

iTunes

iTunes

1 сезон

RePack

30

ИГРА 18+

pack

ВАЖНО

!!Акция!!

Alien_RageХит недели

RePack

MK11
pack

Забери бонус

RePack

jed

!!Акция!!

Alien_Rage

RePack

fifa19

RePack

Assassins Creed: Odyssey

RePack

NEED FOR SPEED™ PAYBACK

4 сезон

9 сезон

Бесстыжие 9 сезон

Все сериалы

все сериалы на PB.wtf

RePack

FAR CRY 5
  

Тупой и ещё тупее 2 / Dumb and Dumber To [2014, комедия, BDRip 1080p] DUB pb.wtf

Тупой и ещё тупее 2 через торрент pb.wtf

Размер: 15.42 GB | Добавлен: 4 года 2 мес. назад | Торрент скачан:74 раза
Скачать  

14-08-2016 16:48 Тупой и ещё тупее 2 Скачать торрент  

Информация о фильме

Название: Тупой и еще тупее 2

Оригинальное название: Dumb and Dumber To

Страна: США

Студия: New Line Cinema

Жанр: комедия

Год выпуска: 2014

Продолжительность: 01:49:31

Перевод: Дублированное [официальный]

Перевод 2: Авторский (одноголосый закадровый) Антон Карповский

Перевод 3: Профессиональный (многоголосый закадровый) GearsMedia

Cубтитры: Rus, Eng

Оригинальная аудиодорожка: английский

Режиссер: Питер Фаррелли / Peter Farrelly, Бобби Фаррелли / Bobby Farrelly

В ролях: Джим Керри, Джефф Дэниелс, Роб Риггл, Лори Холден, Рэйчел Мелвин, Кэтлин Тёрнер, Стив Том, Дон Лейк, Патриция Френч, Билл Мюррей

Описание: Гарри Данн и Ллойд Кристмас отправляются в путешествие, чтобы разыскать ребенка Гарри, о существовании которого он не подозревал.



Тип релиза: BDRip 1080p
Контейнер: MKV
Видео: MPEG-4 AVC, 16.0 Mбит/с, 1920x1038, 23,976 fps
Аудио: Rus, AC3, 256 kb/s (2 ch), 48 kHz
Аудио 2: Rus, AC3, 384 kb/s (6 ch), 48 kHz - Антон Карповский
Аудио 3: Rus, DTS, 1510 kb/s (6 ch), 48 kHz - GearsMedia
Аудио 4: Eng, DTS, 1510 kb/s (6 ch), 48 kHz
Format : Matroska

Format version : Version 4 / Version 2

File size : 15.4 GiB

Duration : 1h 49mn

Overall bit rate : 20.1 Mbps

Movie name : Тупой и еще тупее 2. (Tonik)

Encoded date : UTC 2015-07-22 18:01:11

Writing application : mkvmerge v7.1.0 ('Good Love') 64bit built on Jul 27 2014 13:06:55

Writing library : libebml v1.3.0 + libmatroska v1.4.1

_STATISTICS_WRITING_APP : mkvmerge v7.1.0 ('Good Love') 64bit built on Jul 27 2014 13:06:55

_STATISTICS_WRITING_DATE_UTC : 2015-07-22 18:01:11

_STATISTICS_TAGS : BPS DURATION NUMBER_OF_FRAMES NUMBER_OF_BYTES

DURATION : 01:48:02.202000000

NUMBER_OF_FRAMES : 2331

NUMBER_OF_BYTES : 66902

Video

ID : 1

Format : AVC

Format/Info : Advanced Video Codec

Format profile : High@L4.1

Format settings, CABAC : Yes

Format settings, ReFrames : 4 frames

Codec ID : V_MPEG4/ISO/AVC

Duration : 1h 49mn

Bit rate : 16.0 Mbps

Width : 1 920 pixels

Height : 1 038 pixels

Display aspect ratio : 1.85:1

Frame rate mode : Constant

Frame rate : 23.976 fps

Color space : YUV

Chroma subsampling : 4:2:0

Bit depth : 8 bits

Scan type : Progressive

Bits/(Pixel*Frame) : 0.336

Stream size : 12.3 GiB (80%)

Writing library : x264 core 144 r2525kMod 40bb568

Encoding settings : cabac=1 / ref=4 / deblock=1:-3:-3 / analyse=0x3:0x133 / me=umh / subme=10 / psy=1 / fade_compensate=0.00 / psy_rd=1.00:0.00 / mixed_ref=1 / me_range=24 / chroma_me=1 / trellis=2 / 8x8dct=1 / cqm=0 / deadzone=21,11 / fast_pskip=0 / chroma_qp_offset=-2 / threads=12 / lookahead_threads=2 / sliced_threads=0 / nr=0 / decimate=0 / interlaced=0 / bluray_compat=0 / constrained_intra=0 / fgo=0 / bframes=9 / b_pyramid=2 / b_adapt=2 / b_bias=0 / direct=3 / weightb=1 / open_gop=0 / weightp=2 / keyint=250 / keyint_min=23 / scenecut=40 / intra_refresh=0 / rc=crf / mbtree=0 / crf=17.6000 / qcomp=0.75 / qpmin=0 / qpmax=69 / qpstep=4 / ip_ratio=1.30 / pb_ratio=1.20 / aq=1:0.80

Language : English

Default : Yes

Forced : No

DURATION : 01:49:30.564000000

NUMBER_OF_FRAMES : 157536

NUMBER_OF_BYTES : 13547328185

_STATISTICS_WRITING_APP : mkvmerge v7.1.0 ('Good Love') 64bit built on Jul 27 2014 13:06:55

_STATISTICS_WRITING_DATE_UTC : 2015-07-22 18:01:11

_STATISTICS_TAGS : BPS DURATION NUMBER_OF_FRAMES NUMBER_OF_BYTES

Audio #1

ID : 2

Format : AC-3

Format/Info : Audio Coding 3

Mode extension : CM (complete main)

Format settings, Endianness : Big

Codec ID : A_AC3

Duration : 1h 49mn

Bit rate mode : Constant

Bit rate : 256 Kbps

Channel(s) : 2 channels

Channel positions : Front: L R

Sampling rate : 48.0 KHz

Bit depth : 16 bits

Compression mode : Lossy

Stream size : 201 MiB (1%)

Language : Russian

Default : Yes

Forced : No

Audio #2

ID : 3

Format : AC-3

Format/Info : Audio Coding 3

Mode extension : CM (complete main)

Format settings, Endianness : Big

Codec ID : A_AC3

Duration : 1h 49mn

Bit rate mode : Constant

Bit rate : 384 Kbps

Channel(s) : 6 channels

Channel positions : Front: L C R, Side: L R, LFE

Sampling rate : 48.0 KHz

Bit depth : 16 bits

Compression mode : Lossy

Stream size : 302 MiB (2%)

Title : Карповский А.

Language : Russian

Default : No

Forced : No

Audio #3

ID : 4

Format : DTS

Format/Info : Digital Theater Systems

Mode : 16

Format settings, Endianness : Big

Codec ID : A_DTS

Duration : 1h 49mn

Bit rate mode : Constant

Bit rate : 1 509 Kbps

Channel(s) : 6 channels

Channel positions : Front: L C R, Side: L R, LFE

Sampling rate : 48.0 KHz

Bit depth : 24 bits

Compression mode : Lossy

Stream size : 1.16 GiB (8%)

Title : GearsMedia

Language : Russian

Default : No

Forced : No

Audio #4

ID : 5

Format : DTS

Format/Info : Digital Theater Systems

Mode : 16

Format settings, Endianness : Big

Codec ID : A_DTS

Duration : 1h 49mn

Bit rate mode : Constant

Bit rate : 1 509 Kbps

Channel(s) : 6 channels

Channel positions : Front: L C R, Side: L R, LFE

Sampling rate : 48.0 KHz

Bit depth : 24 bits

Compression mode : Lossy

Stream size : 1.16 GiB (8%)

Language : English

Default : No

Forced : No

Text #1

ID : 6

Format : UTF-8

Codec ID : S_TEXT/UTF8

Codec ID/Info : UTF-8 Plain Text

Language : Russian

Default : No

Forced : No

Text #2

ID : 7

Format : UTF-8

Codec ID : S_TEXT/UTF8

Codec ID/Info : UTF-8 Plain Text

Language : English

Default : No

Forced : No

Text #3

ID : 8

Format : UTF-8

Codec ID : S_TEXT/UTF8

Codec ID/Info : UTF-8 Plain Text

Language : English

Default : No

Forced : No

Menu

00:00:00.000 : en:00:00:00.000

00:04:23.889 : en:00:04:23.889

00:10:19.744 : en:00:10:19.744

00:17:49.694 : en:00:17:49.694

00:24:31.428 : en:00:24:31.428

00:30:35.792 : en:00:30:35.792

00:35:48.146 : en:00:35:48.146

00:40:26.883 : en:00:40:26.883

00:44:24.579 : en:00:44:24.579

00:51:00.933 : en:00:51:00.933

00:54:27.306 : en:00:54:27.306

00:57:44.920 : en:00:57:44.920

01:03:21.464 : en:01:03:21.464

01:09:23.951 : en:01:09:23.951

01:15:05.876 : en:01:15:05.876

01:21:16.080 : en:01:21:16.080

01:24:48.125 : en:01:24:48.125

01:29:38.540 : en:01:29:38.540

01:37:07.947 : en:01:37:07.947

01:42:12.877 : en:01:42:12.877
pb.wtf



Скачать Тупой и ещё тупее 2 через торрент http://i59.fastpic.ru/big/2015/0311/a3/2f116325905b2408656e8253f513b4a3.jpg Скачать фильм Тупой и ещё тупее 2 через торрент бесплантно в хорошем качестве Описание: Гарри Данн и Ллойд Кристмас отправляются в путешествие, чтобы разыскать ребенка Гарри, о существовании которого он не ... 7.7 10 7
Торрент: Зарегистрирован [2016-08-14 16:48] · скачан: 74 раз
Статус: T временная
Размер: 15.42 GB
Как cкачать? Как скачать Тупой и ещё тупее 2 через торрент | qTorrent

% Раздел Тема Автор DL S | L
T Релизы по Парсеру [Игры, Сериалы и Фильмы и другое...] [ 744 MB ] Тупой и еще тупее 2 / Dumb and Dumber To HDRip / DUB Ворон Скачать
1 | 0
Фильмы 2014 [DVDrip, WEB-DLRip, HDrip] [ 1.45 GB ] Тупой и еще тупее 2 / Dumb and Dumber To [2014 BDRip] Dub [Официальный] Twi7ter Скачать
1 | 0
T Фильмы [HD 720p, 1080p] (Хороший звук DUB, MVO) [ 8.86 GB ] Тупой и ещё тупее 2 / Dumb and Dumber To [2014 BDRip 720p] Dub [Официальный] + AVO + MVO + Sub Rus Eng + Original Eng Skillters Скачать
1 | 0

28-11-2019 20:33  

Отключить всю рекламу на сайте

14-08-2016 19:38 Тупой и ещё тупее 2 Скачать торрент  

фильм опоздал на 20 лет - сними они продолжение сразу, когда его ждали, скорее всего "зашло" бы.pb.wtf



    Дорогой пользователь! Огромная просьба, поблагодарите релизера, оцените раздачу и оставьте свои комментарий, если Вы скачали Тупой и ещё тупее 2 через торрент бесплатно! Внесите свою лепту в развитие PiratBit!
    Комментировать посты могут только пользователи прошедшие не сложную регистрацию
    Показать сообщения:    

    Тупой и ещё тупее 2 через торрент
    Скачать бесплатно Тупой и ещё тупее 2
    Тупой и ещё тупее 2 скачать торрент
    Тупой и ещё тупее 2 смотреть онлайн
    Cкачать фильм Тупой и ещё тупее 2 бесплатно
    Тупой и ещё тупее 2 скачать торрент в хорошем качестве
    Тупой и ещё тупее 2 смотреть онлайн бесплатно в хорошем качестве


    Вы не можете начинать темы
    Вы не можете отвечать на сообщения
    Вы не можете редактировать свои сообщения
    Вы не можете удалять свои сообщения
    Вы не можете голосовать в опросах
    Вы не можете прикреплять файлы к сообщениям
    Вы можете скачивать файлы