Death Stranding+DLC+АВТОАКТИВАЦИЯ

iTunes

iTunes

iTunes

1

iTunes

iTunes

iTunes

iTunes

iTunes

30
pack

$ от Little Big

ВАЖНО

!!Акция!!

Alien_RageХит недели

RePack

Resident Evil 21

ИГРА 18+

pack

RePack

jed

!!Акция!!

Alien_Rage

RePack

fifa19

RePack

Assassins Creed: Odyssey

RePack

NEED FOR SPEED™ PAYBACK

4 сезон

9 сезон

Бесстыжие 9 сезон

Все сериалы

все сериалы на PB.wtf

RePack

FAR CRY 5
  

Капитан Рон / Captain Ron (Том Эберхардт / Thom Eberhardt) [1992, США, комедия, приключения, семейный, WEB-DL 720p] MVO (1 канал) + DVO (Видеосервис) + 3x AVO (Горчаков, Михалёв, Сонькин) + Sub Eng + Original Eng + Ukr (ICTV) pb.wtf

Капитан Рон через торрент pb.wtf

Размер: 3.89 GB | Добавлен: 3 года 11 мес. назад | Торрент скачан:163 раза
Скачать  

14-08-2016 16:55 Капитан Рон Скачать торрент  

Информация о фильме

Название: Капитан Рон

Оригинальное название: Captain Ron

Год выхода: 1992

Жанр: комедия, приключения, семейный

Режиссер: Том Эберхардт

В ролях: Курт Рассел, Мартин Шорт, Мэри Кэй Плэйс, Бенжамин Салисбери, Медоу Систо, Саншайн Логроньо, Хорхе Луис Рамос, Дж.А. Престон, Таня Солер, Рауль Эстела

Описание:

Отец семейства Мартин Харви получает в наследство настоящую яхту… полусгнившее старое корыто, на которое не то что подняться — смотреть страшно. Но неунывающий Мартин решает отправиться на ней в дальнее плавание. Осталось только найти того, кто окажется вполне не в своем уме, чтобы принять командование над этим летучим голландцем.

И тогда на пристани появляется странный незнакомец, настоящий морской волк, только немного потрепанный штормами. Он назвался «Капитаном Роном», и со словами «что починится — починим в море, а суждено потонуть — потонем», созвал всех наверх. И вот корабль Харви, напоминающий Титаник после катастрофы, отправляется навстречу опасностям. На мостике — великолепный Рон. А с таким капитаном и айсберг не нужен.


Страна: США

Студия: David Permut Productions, Touchstone Pictures, Touchwood Pacific Partners 1

Продолжительность: 01:40:05

Перевод: Профессиональный (многоголосый, закадровый) Первый канал + Профессиональный (двухголосый, закадровый) Видеосервис + Авторский (одноголосый, закадровый) В.Горчаков + Авторский (одноголосый, закадровый) А.Михалёв + Авторский (одноголосый, закадровый) В.Сонькин + Профессиональный (многоголосый, закадровый) ICTV

Файл

Формат: Matroska

Видео: 1280x718 at 23.976 fps, MPEG-4 AVC, ~4000 kbps avg

Аудио#1: Russian: 48 kHz, AC3 Dolby Digital, 2/0 (L,R) ch, ~192.00 kbps avg |Многоголосый закадровый, Первый канал|

Аудио#2: Russian: 48 kHz, AC3 Dolby Digital, 2/0 (L,R) ch, ~192.00 kbps avg |Двухголосый закадровый, Видеосервис|

Аудио#3: Russian: 48 kHz, AC3 Dolby Digital, 2/0 (L,R) ch, ~192.00 kbps avg |Авторский, В.Горчаков|

Аудио#4: Russian: 48 kHz, AC3 Dolby Digital, 2/0 (L,R) ch, ~192.00 kbps avg |Авторский, А.Михалёв|

Аудио#5: Russian: 48 kHz, AC3 Dolby Digital, 2/0 (L,R) ch, ~192.00 kbps avg |Авторский, В.Сонькин|

Аудио#6: Ukrainain: 48 kHz, AC3 Dolby Digital, 2/0 (L,R) ch, ~192.00 kbps avg |Многоголосый закадровый, ICTV|

Аудио#7: English: 48 kHz, AC3 Dolby Digital, 3/2 (L,C,R,l,r) + LFE ch, ~384.00 kbps avg

Субтитры: English

***Сохранены и подписаны оригинальные главы.

***Релиз - Dreven.
Общее

Уникальный идентификатор : 227978884293494472236935588680419018650 (0xAB8322D08F8893D4B1304FEEA570879A)

Полное имя : Captain Ron. WEB-DL 720p.mkv

Формат : Matroska

Версия формата : Version 4 / Version 2

Размер файла : 3,89 Гбайт

Продолжительность : 1 ч. 40 м.

Общий поток : 5565 Кбит/сек

Дата кодирования : UTC 2016-08-02 18:47:15

Программа кодирования : mkvmerge v9.3.1 ('Mask Machine') 64bit

Библиотека кодирования : libebml v1.3.4 + libmatroska v1.4.5

Видео

Идентификатор : 1

Формат : AVC

Формат/Информация : Advanced Video Codec

Профиль формата : High@L3.1

Параметр CABAC формата : Нет

Параметр ReFrames формата : 2 кадра

Параметр GOP формата : N=1

Идентификатор кодека : V_MPEG4/ISO/AVC

Продолжительность : 1 ч. 40 м.

Битрейт : 3918 Кбит/сек

Ширина : 1280 пикселей

Высота : 718 пикселей

Соотношение сторон : 16:9

Режим частоты кадров : Постоянный

Частота кадров : 23,976 кадра/сек

Цветовое пространство : YUV

Субдискретизация насыщенности : 4:2:0

Битовая глубина : 8 бит

Тип развёртки : Прогрессивная

Бит/(Пиксели*Кадры) : 0.178

Размер потока : 2,74 Гбайт (70%)

Язык : English

Default : Да

Forced : Нет

Цветовой диапазон : Limited

Основные цвета : BT.709

Характеристики трансфера : BT.709

Коэффициенты матрицы : BT.709

Аудио #1

Идентификатор : 2

Формат : AC-3

Формат/Информация : Audio Coding 3

Расширение режима : CM (complete main)

Параметр Endianness формата : Big

Идентификатор кодека : A_AC3

Продолжительность : 1 ч. 40 м.

Вид битрейта : Постоянный

Битрейт : 192 Кбит/сек

Каналы : 2 канала

Расположение каналов : Front: L R

Частота : 48,0 КГц

Метод сжатия : С потерями

Размер потока : 137 Мбайт (3%)

Заголовок : 1 канал

Язык : Russian

Default : Да

Forced : Нет

Аудио #2

Идентификатор : 3

Формат : AC-3

Формат/Информация : Audio Coding 3

Расширение режима : CM (complete main)

Параметр Endianness формата : Big

Идентификатор кодека : A_AC3

Продолжительность : 1 ч. 40 м.

Вид битрейта : Постоянный

Битрейт : 192 Кбит/сек

Каналы : 2 канала

Расположение каналов : Front: L R

Частота : 48,0 КГц

Метод сжатия : С потерями

Размер потока : 137 Мбайт (3%)

Заголовок : Видеосервис

Язык : Russian

Default : Нет

Forced : Нет

Аудио #3

Идентификатор : 4

Формат : AC-3

Формат/Информация : Audio Coding 3

Расширение режима : CM (complete main)

Параметр Endianness формата : Big

Идентификатор кодека : A_AC3

Продолжительность : 1 ч. 40 м.

Вид битрейта : Постоянный

Битрейт : 192 Кбит/сек

Каналы : 2 канала

Расположение каналов : Front: L R

Частота : 48,0 КГц

Метод сжатия : С потерями

Размер потока : 137 Мбайт (3%)

Заголовок : Василий Горчаков

Язык : Russian

Default : Нет

Forced : Нет

Аудио #4

Идентификатор : 5

Формат : AC-3

Формат/Информация : Audio Coding 3

Расширение режима : CM (complete main)

Параметр Endianness формата : Big

Идентификатор кодека : A_AC3

Продолжительность : 1 ч. 40 м.

Вид битрейта : Постоянный

Битрейт : 192 Кбит/сек

Каналы : 2 канала

Расположение каналов : Front: L R

Частота : 48,0 КГц

Метод сжатия : С потерями

Размер потока : 137 Мбайт (3%)

Заголовок : Алексей Михалёв

Язык : Russian

Default : Нет

Forced : Нет

Аудио #5

Идентификатор : 6

Формат : AC-3

Формат/Информация : Audio Coding 3

Расширение режима : CM (complete main)

Параметр Endianness формата : Big

Идентификатор кодека : A_AC3

Продолжительность : 1 ч. 40 м.

Вид битрейта : Постоянный

Битрейт : 192 Кбит/сек

Каналы : 2 канала

Расположение каналов : Front: L R

Частота : 48,0 КГц

Метод сжатия : С потерями

Размер потока : 137 Мбайт (3%)

Заголовок : Владимир Сонькин

Язык : Russian

Default : Нет

Forced : Нет

Аудио #6

Идентификатор : 7

Формат : AC-3

Формат/Информация : Audio Coding 3

Расширение режима : CM (complete main)

Параметр Endianness формата : Big

Идентификатор кодека : A_AC3

Продолжительность : 1 ч. 40 м.

Вид битрейта : Постоянный

Битрейт : 192 Кбит/сек

Каналы : 2 канала

Расположение каналов : Front: L R

Частота : 48,0 КГц

Метод сжатия : С потерями

Размер потока : 137 Мбайт (3%)

Заголовок : ICTV

Язык : Ukrainian

Default : Нет

Forced : Нет

Аудио #7

Идентификатор : 8

Формат : AC-3

Формат/Информация : Audio Coding 3

Расширение режима : CM (complete main)

Параметр Endianness формата : Big

Идентификатор кодека : A_AC3

Продолжительность : 1 ч. 40 м.

Вид битрейта : Постоянный

Битрейт : 384 Кбит/сек

Каналы : 6 каналов

Расположение каналов : Front: L C R, Side: L R, LFE

Частота : 48,0 КГц

Метод сжатия : С потерями

Размер потока : 275 Мбайт (7%)

Язык : English

Default : Нет

Forced : Нет

Текст

Идентификатор : 9

Формат : UTF-8

Идентификатор кодека : S_TEXT/UTF8

Идентификатор кодека/Информация : UTF-8 Plain Text

Язык : English

Default : Нет

Forced : Нет

Меню

00:00:00.000 : en:Opening Titles/Someday

00:11:48.000 : en:A Classic

00:16:03.000 : en:Call Me Captain Ron

00:23:16.000 : en:The Adventure Begins

00:32:26.000 : en:Make The Game Interesting

00:38:47.000 : en:The Land Of Voodoo

00:47:15.000 : en:Pirates Of The Caribbean

00:56:53.000 : en:Worth Getting Lost

01:05:20.000 : en:Carnival

01:14:36.000 : en:Welcome To Cuba

01:25:34.000 : en:Nothing Can Stop Us Now

01:33:47.000 : en:Miami/End Credits
pb.wtf



Скачать Капитан Рон через торрент http://i3.imageban.ru/out/2016/08/14/c6b5bd590109ea18d263d676bbb5c20f.png Скачать фильм Капитан Рон через торрент бесплантно в хорошем качестве Описание: Отец семейства Мартин Харви получает в наследство настоящую яхту… полусгнившее старое корыто, на которое не то что подняться — ... 9.7 10 7
Торрент: Зарегистрирован [2016-08-14 16:55] · скачан: 163 раз
Статус: √ проверено
Размер: 3.89 GB
Как cкачать? Как скачать Капитан Рон через торрент | qTorrent

% Раздел Тема Автор DL S | L
Классика зарубежного кино [ 1.45 GB ] Капитан Синдбад / Captain Sindbad [1963 Германия DVDRip многоголосый jump88 Скачать
1 | 0
Фильмы до 2000 г. [ 1.46 GB ] Капитан Рон / Captain Ron [1992 WEB-DLRip] [DVO] killermax2013 Скачать
1 | 0

28-11-2019 20:33  

Отключить всю рекламу на сайте

14-08-2016 23:58 Капитан Рон Скачать торрент  

Норм кино мне понравился)pb.wtf



17-08-2016 20:20 Капитан Рон Скачать торрент  

Спасибо, классный фильм, лёгенький, весёлый, позитивный.. pb.wtf



    Дорогой пользователь! Огромная просьба, поблагодарите релизера, оцените раздачу и оставьте свои комментарий, если Вы скачали Капитан Рон через торрент бесплатно! Внесите свою лепту в развитие PiratBit!
    Комментировать посты могут только пользователи прошедшие не сложную регистрацию
    Показать сообщения:    

    Капитан Рон через торрент
    Скачать бесплатно Капитан Рон
    Капитан Рон скачать торрент
    Капитан Рон смотреть онлайн
    Cкачать фильм Капитан Рон бесплатно
    Капитан Рон скачать торрент в хорошем качестве
    Капитан Рон смотреть онлайн бесплатно в хорошем качестве


    Вы не можете начинать темы
    Вы не можете отвечать на сообщения
    Вы не можете редактировать свои сообщения
    Вы не можете удалять свои сообщения
    Вы не можете голосовать в опросах
    Вы не можете прикреплять файлы к сообщениям
    Вы можете скачивать файлы