2 сезон

iTunes

1 сезон

1

iTunes

iTunes

iTunes

1 сезон

RePack

30

ИГРА 18+

pack

ВАЖНО

!!Акция!!

Alien_RageХит недели

RePack

MK11
pack

Забери бонус

RePack

jed

!!Акция!!

Alien_Rage

RePack

fifa19

RePack

Assassins Creed: Odyssey

RePack

NEED FOR SPEED™ PAYBACK

4 сезон

9 сезон

Бесстыжие 9 сезон

Все сериалы

все сериалы на PB.wtf

RePack

FAR CRY 5
  

Декамерон / Maraviglioso Boccaccio (Паоло Тавиани, Витторио Тавиани) [2015, драма, комедия, история, BDRip 720p by msltel] DUB pb.wtf

Декамерон через торрент pb.wtf

Размер: 3.85 GB | Добавлен: 4 года 2 мес. назад | Торрент скачан:77 раз
Скачать  

16-08-2016 09:02 Декамерон Скачать торрент  

Название: Декамерон
Оригинальное название: Maraviglioso Boccaccio
Год выпуска: 2015
Страна: Италия, Франция
Жанр: драма, комедия, история
Продолжительность: 02:00:50
Перевод: дублированный

Режиссёр: Паоло Тавиани, Витторио Тавиани

В ролях: Лелло Арена, Паола Кортеллези, Каролина Крешентини, Флавио Паренти, Виттория Пуччини, Микеле Риондино, Ким Росси Стюарт, Риккардо Скамарчио, Касия Смутняк, Жазмин Тринка, Розабелла Лауренти Селлерс

Описание: Флоренция. XIV век. Повсюду свирепствует «Чёрная смерть». Три юноши и семь девушек сбегают в деревню, чтобы оградить себя от чумы. Там, чтобы скоротать время, они начинают рассказывать друг другу разные истории, посвящённые любви... По мотивам "Декамерона" Джованни Боккаччо.



Качество: BDRip 720p Сравнение с исходником
Формат: MKV
Видео: MPEG-4 AVC, 3728 Кбит/с, 1280x690, 23,976 кадра/с
Аудио 1: русский, AC3, 384 kbps, 6 ch, 48 kHz [дублированный]
Аудио 2: итальянский, AC3, 448 kbps, 6 ch, 48 kHz [оригинал]
Общее
Уникальный идентификатор : 238341974860354809866308309061185145446 (0xB34EFEA0A5E69D459FEB0B2372E18A66)
Полное имя : D:\Video\Декамерон.2015.BDRip.720p.mkv
Формат : Matroska
Версия формата : Version 4 / Version 2
Размер файла : 3,85 Гбайт
Продолжительность : 2 ч. 0 м.
Общий поток : 4562 Кбит/сек
Дата кодирования : UTC 2016-08-15 02:38:35
Программа кодирования : mkvmerge v8.2.0 ('World of Adventure') 64bit
Библиотека кодирования : libebml v1.3.1 + libmatroska v1.4.2

Видео
Идентификатор : 1
Формат : AVC
Формат/Информация : Advanced Video Codec
Профиль формата : High@L4.1
Параметр CABAC формата : Да
Параметр ReFrames формата : 9 кадров
Идентификатор кодека : V_MPEG4/ISO/AVC
Продолжительность : 2 ч. 0 м.
Битрейт : 3728 Кбит/сек
Ширина : 1280 пикселей
Высота : 690 пикселей
Соотношение сторон : 1,85:1
Режим частоты кадров : Постоянный
Частота кадров : 23,976 (24000/1001) кадра/сек
Цветовое пространство : YUV
Субдискретизация насыщенности : 4:2:0
Битовая глубина : 8 бит
Тип развёртки : Прогрессивная
Бит/(Пиксели*Кадры) : 0.176
Размер потока : 3,15 Гбайт (82%)
Библиотека кодирования : x264 core 146 r2538 121396c
Настройки программы : cabac=1 / ref=9 / deblock=1:-1:-1 / analyse=0x3:0x113 / me=umh / subme=10 / psy=1 / psy_rd=1.00:0.15 / mixed_ref=1 / me_range=32 / chroma_me=1 / trellis=2 / 8x8dct=1 / cqm=0 / deadzone=21,11 / fast_pskip=1 / chroma_qp_offset=-3 / threads=6 / lookahead_threads=1 / sliced_threads=0 / nr=0 / decimate=1 / interlaced=0 / bluray_compat=0 / constrained_intra=0 / bframes=8 / b_pyramid=2 / b_adapt=2 / b_bias=0 / direct=1 / weightb=1 / open_gop=0 / weightp=2 / keyint=230 / keyint_min=23 / scenecut=40 / intra_refresh=0 / rc_lookahead=40 / rc=crf / mbtree=0 / crf=17.0 / qcomp=0.60 / qpmin=0 / qpmax=69 / qpstep=4 / vbv_maxrate=40000 / vbv_bufsize=50000 / crf_max=0.0 / nal_hrd=none / filler=0 / ip_ratio=1.40 / pb_ratio=1.30 / aq=1:1.00
Язык : Italian
Default : Да
Forced : Нет

Аудио #1
Идентификатор : 2
Формат : AC-3
Формат/Информация : Audio Coding 3
Расширение режима : CM (complete main)
Параметр Endianness формата : Big
Идентификатор кодека : A_AC3
Продолжительность : 2 ч. 0 м.
Вид битрейта : Постоянный
Битрейт : 384 Кбит/сек
Каналы : 6 каналов
Расположение каналов : Front: L C R, Side: L R, LFE
Частота : 48,0 КГц
Частота кадров : 31,250 кадров/сек (1536 spf)
Метод сжатия : С потерями
Размер потока : 332 Мбайт (8%)
Заголовок : DUB
Язык : Russian
Default : Да
Forced : Нет

Аудио #2
Идентификатор : 3
Формат : AC-3
Формат/Информация : Audio Coding 3
Расширение режима : CM (complete main)
Параметр Endianness формата : Big
Идентификатор кодека : A_AC3
Продолжительность : 2 ч. 0 м.
Вид битрейта : Постоянный
Битрейт : 448 Кбит/сек
Каналы : 6 каналов
Расположение каналов : Front: L C R, Side: L R, LFE
Частота : 48,0 КГц
Частота кадров : 31,250 кадров/сек (1536 spf)
Метод сжатия : С потерями
Размер потока : 387 Мбайт (10%)
Заголовок : original
Язык : Italian
Default : Нет
Forced : Нет
pb.wtf



Скачать Декамерон через торрент http://s017.radikal.ru/i440/1608/35/357300cde0c7.jpg Скачать фильм Декамерон через торрент бесплантно в хорошем качестве Описание: Флоренция. XIV век. Повсюду свирепствует «Чёрная смерть». Три юноши и семь девушек сбегают в деревню, чтобы оградить себя от ... 10 10 4
Info! Золотая раздача, скачанное не засчитывается.
Торрент: Зарегистрирован [2016-08-16 09:02] · скачан: 77 раз
Статус: √ проверено
Размер: 3.85 GB
Как cкачать? Как скачать Декамерон через торрент | qTorrent

% Раздел Тема Автор DL S | L
Фильмы [HD 720p, 1080p] (Хороший звук DUB, MVO) [ 9.58 GB ] Декамерон / Maraviglioso Boccaccio [2015 история BDRip 1080p by msltel] DUB msltel Скачать
1 | 0

28-11-2019 20:33  

Отключить всю рекламу на сайте

    Дорогой пользователь! Огромная просьба, поблагодарите релизера, оцените раздачу и оставьте свои комментарий, если Вы скачали Декамерон через торрент бесплатно! Внесите свою лепту в развитие PiratBit!
    Комментировать посты могут только пользователи прошедшие не сложную регистрацию
    Показать сообщения:    

    Декамерон через торрент
    Скачать бесплатно Декамерон
    Декамерон скачать торрент
    Декамерон смотреть онлайн
    Cкачать фильм Декамерон бесплатно
    Декамерон скачать торрент в хорошем качестве
    Декамерон смотреть онлайн бесплатно в хорошем качестве


    Вы не можете начинать темы
    Вы не можете отвечать на сообщения
    Вы не можете редактировать свои сообщения
    Вы не можете удалять свои сообщения
    Вы не можете голосовать в опросах
    Вы не можете прикреплять файлы к сообщениям
    Вы можете скачивать файлы