MEGA SALE -50% FORZA HORIZON 4 ULTIMATE+ВСЕ DLC+ОНЛАЙН всего за 599р. 299 руб. (супер цена). Внимание количество ограничено!!!

iTunes

1+1

iTunes

мы

iTunes

1

iTunes

Чернобыль

iTunes

Ральф против интернета

Лицензия

ПШазам

Лицензия

Игра престолов

Лицензия

30
pack

ВАЖНО

!!Акция!!

Alien_RageХит недели

RePack

Resident Evil 21

ИГРА 18+

pack

RePack

Metro:Exodus

!!Акция!!

Alien_Rage

RePack

fifa19

RePack

Assassins Creed: Odyssey

RePack

NEED FOR SPEED™ PAYBACK

3 сезон

9 сезон

Бесстыжие 9 сезон

Все сериалы

все сериалы на PB.wtf

RePack

FAR CRY 5
Ребята, катастрофически не хватает 7730р. для оплаты серверов за АВГУСТ (всвязи с блокировками трафик упал в 3 раза), 1-2р., выручайте.
  

Князь тьмы / Prince of Darkness (Джон Карпентер) [1987 г., ужасы, BDRip, Профессиональный (многоголосый)] pb.wtf

Князь тьмы через торрент pb.wtf

Качают: 1 [ 0 KB/s ]
Размер: 1.46 GB | Добавлен: 3 года 1 мес. назад | Торрент скачан:70 раз
Скачать  

16-08-2016 10:48 Князь тьмы Скачать торрент  

Князь тьмы / Prince of DarknessГод выпуска: 1987
Страна: США
Жанр: ужасы
Продолжительность: 01:47:57
Перевод:Профессиональный (многоголосый, закадровый) [CP Digital]
Субтитры: Отсутствуют

Режиссер: Джон Карпентер
Продюссер: Ларри Дж. Франко, Андре Блэй, Шеп Гордон
Сценарий: Джон Карпентер

Бюджет: $3 000 000
Премьера в мире: 23 октября 1987

лицам до 18 лет обязательно присутствие взрослого
http://imdb.snick.ru/movie/tt0093777



В ролях: Дональд Плезенс, Джеймисон Паркер, Элис Купер, Виктор Вонг, Лиза Блаунт, Деннис Дун, Сьюзэн Блэнчард, Энн Мари Ховард, Энн Йен, Кен Райт, Дирк Блокер

Описание: «Он спал на протяжении веков... Пришло время пробудиться...»

Группа ученых-исследователей во время изучения заброшенной церкви находит необычный сосуд. С помощью рентгеновских лучей им удается определить, что сосуду около 7 миллионов лет и, что самое интересное, его можно открыть только изнутри. В нем находится некая непонятная субстанция: жидкий алмаз, созданный какой-то таинственной силой. В древней рукописи говорится, что в этом алмазе покоится сам Сатана или его дух. В результате экспериментов дьявольская сила, высвободившись из сосуда и рассеявшись в пространстве, начинает вселяться в исследователей, превращая их в рабов Сатаны.

Качество: BDRip
Формат: AVI
Видео кодек: XviD
Аудио кодек: AC3
Видео: 720x304 (2.37:1), 23.976 fps, Xvid build 73 ~1595 kbps avg, 0.30 bit/pixel
Аудио#1: 48 kHz, AC3 Dolby Digital, 3/2 (L,C,R,l,r) + LFE ch, ~448.00 kbps avg
скриншот  скриншот  скриншот  скриншот  скриншот  скриншот  

Код:

General
Complete name                            : E:\Knyaz_timy.1987.BDRip.avi
Format                                   : AVI
Format/Info                              : Audio Video Interleave
File size                                : 1.46 GiB
Duration                                 : 1h 41mn
Overall bit rate                         : 2 053 Kbps
Movie name                               : Prince of Darkness (1987) - BDRip by Juvelir
Writing application                      : VirtualDubMod 1.5.10.2 (build 2542/release)

Video
ID                                       : 0
Format                                   : MPEG-4 Visual
Format profile                           : Advanced Simple@L5
Format settings, BVOP                    : 2
Format settings, QPel                    : No
Format settings, GMC                     : No warppoints
Format settings, Matrix                  : Custom
Codec ID                                 : XVID
Codec ID/Hint                            : XviD
Duration                                 : 1h 41mn
Bit rate                                 : 1 596 Kbps
Width                                    : 720 pixels
Height                                   : 304 pixels
Display aspect ratio                     : 2.35:1
Frame rate                               : 23.976 fps
Color space                              : YUV
Chroma subsampling                       : 4:2:0
Bit depth                                : 8 bits
Scan type                                : Progressive
Compression mode                         : Lossy
Bits/(Pixel*Frame)                       : 0.304
Stream size                              : 1.13 GiB (78%)
Writing library                          : XviD 73

Audio
ID                                       : 1
Format                                   : AC-3
Format/Info                              : Audio Coding 3
Mode extension                           : CM (complete main)
Format settings, Endianness              : Big
Codec ID                                 : 2000
Duration                                 : 1h 41mn
Bit rate mode                            : Constant
Bit rate                                 : 448 Kbps
Channel count                            : 6 channels
Channel positions                        : Front: L C R, Side: L R, LFE
Sampling rate                            : 48.0 KHz
Bit depth                                : 16 bits
Compression mode                         : Lossy
Stream size                              : 326 MiB (22%)
Alignment                                : Split accross interleaves
Interleave, duration                     : 42 ms (1.00 video frame)
Interleave, preload duration             : 500 ms
Title                                    : MVO (CP Digital)


pb.wtf



Скачать Князь тьмы через торрент http://s018.radikal.ru/i522/1608/7d/730727de21d9.jpg Скачать фильм Князь тьмы через торрент бесплантно в хорошем качестве Описание: «Он спал на протяжении веков... Пришло время пробудиться...» Группа ученых-исследователей во время изучения заброшенной церкви ... 9.8 10 5
Торрент: Зарегистрирован [2016-08-16 10:48] · скачан: 70 раз
Статус: √ проверено
Размер: 1.46 GB
Как cкачать? Как скачать Князь тьмы через торрент | qTorrent

% Раздел Тема Автор DL S | L
Фильмы [HD 720p, 1080p] (Хороший звук DUB, MVO) [ 7.87 GB ] Князь тьмы / Prince of Darkness [1987 BDRip 720p от KORSAR] [REMASTERED] [2xMVO + DVO + 2xAVO] HollySmoke Скачать
2 | 0
Ultra HD (UHD: 2K, 4K, 8K) — видео сверхвысокой чёткости [ 43.64 GB ] Князь тьмы / Prince of Darkness [1987 UHD BDRemux 2160p] 2xMVO + DVO + 2xAVO sheker187 Скачать
1 | 0
Фильмы до 2000 г. [ 702 MB ] Дракула: Князь тьмы / Dracula: Prince of Darkness [1966 DVDRip] dino crisis Скачать
1 | 0


>> Регистрируемся здесь <<






Отзывы и комментарии о схеме читаем и пишем здесь: ---> Отзывы и комментарии о схеме

Новые благодарочки в телеграм довольных пользователей:
скриншот   скриншот   скриншот   скриншот   скриншот

16-08-2016 14:43 Князь тьмы Скачать торрент  

Фильм знакомый вспомнить не могу,надо посмотреть) pb.wtf



16-08-2016 16:19 Князь тьмы Скачать торрент  

bober100 писал(а):

Фильм знакомый вспомнить не могу,надо посмотреть)

Классный фильм! Классика ужасов. Стоит в одном ряду с такими шедеврами, как "Ветер Демонов", "Ночь Демонов" и др. Советую к просмотру.pb.wtf



    Дорогой пользователь! Огромная просьба, поблагодарите релизера, оцените раздачу и оставьте свои комментарий, если Вы скачали Князь тьмы через торрент бесплатно! Внесите свою лепту в развитие PiratBit!
    Комментировать посты могут только пользователи прошедшие не сложную регистрацию
    Показать сообщения:    

    Князь тьмы через торрент
    Скачать бесплатно Князь тьмы
    Князь тьмы скачать торрент
    Князь тьмы смотреть онлайн
    Cкачать фильм Князь тьмы бесплатно
    Князь тьмы скачать торрент в хорошем качестве
    Князь тьмы смотреть онлайн бесплатно в хорошем качестве


    Вы не можете начинать темы
    Вы не можете отвечать на сообщения
    Вы не можете редактировать свои сообщения
    Вы не можете удалять свои сообщения
    Вы не можете голосовать в опросах
    Вы не можете прикреплять файлы к сообщениям
    Вы можете скачивать файлы