2 сезон

iTunes

MVO

1

2 сезон

iTunes

1 сезон

1 сезон

RePack

30

Ultimate

ВАЖНО

ИГРА 18+

pack

RePack

MK11
pack

Легкие деньги

RePack

jed

RePack

fifa19

RePack

RDR2

RePack

NEED FOR SPEED™ PAYBACK

4 сезон

9 сезон

Бесстыжие 9 сезон

Все сериалы

все сериалы на PB.wtf

RePack

FAR CRY 5

Anonymous, добрый вечер, мы не успеваем собрать деньги на оплату серверов за декабрь и январь, помогите нам пожалуйста в это трудное время. В качестве благодарности мы отключим Вам всю рекламу на сайте (укажите свой ник в строку Ваше имя)!

×
  
Magnet ссылка

Загадки века. Неизвестный Байконур («ЗВЕЗДА») [2016 г., Документальный, космос, история, SATRip, Русский] pb.wtf

Загадки века. Неизвестный Байконур через торрент pb.wtf

Размер: 544 MB | Добавлен: 4 года 5 мес. назад | Торрент скачан:68 раз
Скачать  

16-08-2016 13:19 Загадки века. Неизвестный Байконур Скачать торрент  

Загадки века. Неизвестный Байконур
Год выпуска: 2016
Страна: Россия
Жанр: Документальный, космос, история
Продолжительность: 00:38:00
Перевод: Не требуется Русский

Режиссер: «ЗВЕЗДА»

Ведущий: Сергей Медведев

Описание:

2 июня 1955 года советским руководством было принято историческое решение о строительстве в казахстанских степях ракетно-космического полигона, который позднее стал известен как Байконур. Фильм рассказывает о строительстве космодрома, о запуске с его стартовых комплексов первых боевых ракет, которые обеспечили паритет двух сверхдержав - СССР и США.

Качество: SATRip
Формат: AVI
Видео кодек: XviD
Аудио кодек: AC3
Видео: XviD, 720x400, 25.000 fps, 1799 Kbps (0.250 bit/pixel)
Аудио#1: АС3, 48.0 KHz, 2 ch, 192 Kbps, CBR
Релиз от: alf62
скриншот   скриншот   скриншот   скриншот  

Загадки.века.Неизвестный.Байконур.2016.XviD.SATRip.alf62.avi
Формат : AVI
Формат/Информация : Audio Video Interleave
Размер файла : 544 Мбайт
Продолжительность : 37 м.
Общий поток : 2001 Кбит/сек
Программа кодирования : VirtualDubMod 1.5.10.3 | www.virtualdub-fr.org || (build 2550/release)
Библиотека кодирования : VirtualDubMod build 2550/release

Видео
Идентификатор : 0
Формат : MPEG-4 Visual
Профиль формата : Advanced Simple@L5
Параметр BVOP формата : 1
Параметр QPel формата : Нет
Параметр GMC формата : Без точки перехода
Параметр матрицы формата : Default (MPEG)
Идентификатор кодека : XVID
Идентификатор кодека/Подсказка : XviD
Продолжительность : 37 м.
Битрейт : 1799 Кбит/сек
Ширина : 720 пикселей
Высота : 400 пикселей
Соотношение сторон : 16:9
Частота кадров : 25,000 кадров/сек
Цветовое пространство : YUV
Субдискретизация насыщенности : 4:2:0
Битовая глубина : 8 бит
Тип развёртки : Прогрессивная
Метод сжатия : С потерями
Бит/(Пиксели*Кадры) : 0.250
Размер потока : 489 Мбайт (90%)
Библиотека кодирования : XviD 73

Аудио
Идентификатор : 1
Формат : AC-3
Формат/Информация : Audio Coding 3
Расширение режима : CM (complete main)
Параметр Endianness формата : Big
Идентификатор кодека : 2000
Продолжительность : 37 м.
Вид битрейта : Постоянный
Битрейт : 192 Кбит/сек
Каналы : 2 канала
Расположение каналов : Front: L R
Частота : 48,0 КГц
Битовая глубина : 16 бит
Метод сжатия : С потерями
Размер потока : 52,2 Мбайт (10%)
Выравнивание : Разделение по промежуткам
Продолжительность промежутка : 40 мс. (1,00 видеокадр)
Время предзагрузки промежутка : 500 мс.

pb.wtf



Скачать Загадки века. Неизвестный Байконур через торрент http://i6.imageban.ru/out/2016/08/16/d4c110279aec528481df590c50c638a7.jpg Скачать фильм Загадки века. Неизвестный Байконур через торрент бесплантно в хорошем качестве Описание: 2 июня 1955 года советским руководством было принято историческое решение о строительстве в казахстанских степях ... 10 10 9
Info! Золотая раздача, скачанное не засчитывается.
Торрент: Зарегистрирован [2016-08-16 13:19] · скачан: 68 раз
Статус: √ проверено
Размер: 544 MB
Как cкачать? Как скачать Загадки века. Неизвестный Байконур через торрент | UTorrent

28-11-2019 20:33  

Отключить всю рекламу на сайте

    Дорогой пользователь! Огромная просьба, поблагодарите релизера, оцените раздачу и оставьте свои комментарий, если Вы скачали Загадки века. Неизвестный Байконур через торрент бесплатно! Внесите свою лепту в развитие PiratBit!
    Комментировать посты могут только пользователи прошедшие не сложную регистрацию
    Показать сообщения:    

    Загадки века. Неизвестный Байконур через торрент
    Скачать бесплатно Загадки века. Неизвестный Байконур
    Загадки века. Неизвестный Байконур скачать торрент
    Загадки века. Неизвестный Байконур смотреть онлайн
    Cкачать фильм Загадки века. Неизвестный Байконур бесплатно
    Загадки века. Неизвестный Байконур скачать торрент в хорошем качестве
    Загадки века. Неизвестный Байконур смотреть онлайн бесплатно в хорошем качестве


    Вы не можете начинать темы
    Вы не можете отвечать на сообщения
    Вы не можете редактировать свои сообщения
    Вы не можете удалять свои сообщения
    Вы не можете голосовать в опросах
    Вы не можете прикреплять файлы к сообщениям
    Вы можете скачивать файлы