Мега распродажа FORZA HORIZON 4 ULTIMATE+ВСЕ DLC+ОНЛАЙН всего за 499р. 349 руб. (супер цена). Внимание количество ограничено!!!

Лицензия

30

iTunes

мы

iTunes

1

1 сезон

Чернобыль

1 сезон

Ральф против интернета

MVO

Покемон. Детектив Пикачу

8 сезон

Игра престолов

iTunes

1+1

ИГРА 18+

pack

ВАЖНО

!!Акция!!

Alien_RageХит недели

RePack

Resident Evil 21
pack

RePack

Metro:Exodus

!!Акция!!

Alien_Rage

RePack

fifa19

RePack

Assassins Creed: Odyssey

RePack

NEED FOR SPEED™ PAYBACK

3 сезон

9 сезон

Бесстыжие 9 сезон

Все сериалы

все сериалы на PB.wtf

RePack

FAR CRY 5
Ребята, катастрофически не хватает 2730р. для оплаты серверов за МАЙ (всвязи с блокировками трафик упал в 3 раза), 1-2р., выручайте.
  

Веселые ребята / The Sunshine Boys (Херберт Росс) [1975 г., комедия, HDRip] MVO pb.wtf

Веселые ребята через торрент pb.wtf

Размер: 1.45 GB | Добавлен: 2 года 10 мес. назад | Торрент скачан:11 раз
Скачать  

16-08-2016 18:16 Веселые ребята Скачать торрент  

Веселые ребята / The Sunshine Boys
Год выпуска: 1975
Страна: США
Жанр: комедия
Продолжительность: 01:51:02
Перевод: Профессиональный (многоголосый)

Режиссер: Херберт Росс
Продюссер: Рэй Старк, Роджер М. Ротштайн
Сценарий: Нил Саймон

Премьера в мире: 6 ноября 1975



В ролях: Уолтер Мэттау, Джордж Бёрнс, Ричард Бенджамин, Ли Мередит, Кэрол Артур, Розетта ЛеНойр, Ф. Мюррэй Абрахам, Ховард Хессеман, Джеймс Кранна, Рон Рифкин

Описание: В эпоху водевилей Льюис и Кларк были знаменитыми комедиантами. Но после того, как они покинули сцену, они не разговаривали друг с другом целых 20 лет. Племянник Вилли Бен, продюсер нового шоу, надеется добиться воссоединения знаменитого дуэта. Однако, для этого ему придется очень постараться…

Качество: HDRip
Формат: AVI
Видео кодек: XviD
Аудио кодек: AC3
Видео: XviD, 1472 Кбит/с, 704x392, 23.976 кадр/с
Аудио#1: AC3, 2 ch, 192 Кбит/с, 48 kHz | Русский
Аудио#2: AC3, 2 ch, 192 Кбит/с, 48 kHz | Английский
Релиз от: Koenig
General
Complete name : The.Sunshine.Boys.1975.HDRip.avi
Format : AVI
Format/Info : Audio Video Interleave
File size : 1.45 GiB
Duration : 1h 51mn
Overall bit rate : 1 870 Kbps
Writing application : VirtualDubMod 1.5.10.2 (build 2540/release)
Writing library : VirtualDubMod build 2540/release

Video
ID : 0
Format : MPEG-4 Visual
Format profile : Advanced Simple@L5
Format settings, BVOP : 1
Format settings, QPel : No
Format settings, GMC : No warppoints
Format settings, Matrix : Default (H.263)
Codec ID : XVID
Codec ID/Hint : XviD
Duration : 1h 51mn
Bit rate : 1 472 Kbps
Width : 704 pixels
Height : 392 pixels
Display aspect ratio : 16:9
Frame rate : 23.976 (23976/1000) fps
Color space : YUV
Chroma subsampling : 4:2:0
Bit depth : 8 bits
Scan type : Progressive
Compression mode : Lossy
Bits/(Pixel*Frame) : 0.222
Stream size : 1.14 GiB (79%)
Writing library : XviD 1.2.0.dev47 (UTC 2006-11-01)

Audio #1
ID : 1
Format : AC-3
Format/Info : Audio Coding 3
Mode extension : CM (complete main)
Format settings, Endianness : Big
Codec ID : 2000
Duration : 1h 50mn
Bit rate mode : Constant
Bit rate : 192 Kbps
Channel(s) : 2 channels
Channel positions : Front: L R
Sampling rate : 48.0 KHz
Frame rate : 31.250 fps (1536 spf)
Compression mode : Lossy
Stream size : 152 MiB (10%)
Alignment : Split accross interleaves
Interleave, duration : 42 ms (1.00 video frame)
Interleave, preload duration : 500 ms

Audio #2
ID : 2
Format : AC-3
Format/Info : Audio Coding 3
Mode extension : CM (complete main)
Format settings, Endianness : Big
Codec ID : 2000
Duration : 1h 51mn
Bit rate mode : Constant
Bit rate : 192 Kbps
Channel(s) : 2 channels
Channel positions : Front: L R
Sampling rate : 48.0 KHz
Frame rate : 31.250 fps (1536 spf)
Compression mode : Lossy
Stream size : 152 MiB (10%)
Alignment : Split accross interleaves
Interleave, duration : 42 ms (1.00 video frame)
Interleave, preload duration : 500 ms

pb.wtf



Скачать Веселые ребята через торрент http://pic1.kartinco.top/images/10/ljice.jpg Скачать фильм Веселые ребята через торрент бесплантно в хорошем качестве Описание: В эпоху водевилей Льюис и Кларк были знаменитыми комедиантами. Но после того, как они покинули сцену, они не разговаривали друг с ... 7.8 10 4
Info! Золотая раздача, скачанное не засчитывается.
Торрент: Зарегистрирован [2016-08-16 18:16] · скачан: 11 раз
Статус: √ проверено
Размер: 1.45 GB
Как cкачать? Как скачать Веселые ребята через торрент | qTorrent


>> Регистрируемся здесь <<






Отзывы и комментарии о схеме читаем и пишем здесь: ---> Отзывы и комментарии о схеме

Новые благодарочки в телеграм довольных пользователей:
скриншот   скриншот   скриншот   скриншот   скриншот

17-08-2016 01:37 Веселые ребята Скачать торрент  

Классика мирового кино, в наше время такие фильмы на ценителя)pb.wtf



    Дорогой пользователь! Огромная просьба, поблагодарите релизера, оцените раздачу и оставьте свои комментарий, если Вы скачали Веселые ребята через торрент бесплатно! Внесите свою лепту в развитие PiratBit!
    Комментировать посты могут только пользователи прошедшие не сложную регистрацию
    Показать сообщения:    

    Веселые ребята через торрент
    Скачать бесплатно Веселые ребята
    Веселые ребята скачать торрент
    Веселые ребята смотреть онлайн
    Cкачать фильм Веселые ребята бесплатно
    Веселые ребята скачать торрент в хорошем качестве
    Веселые ребята смотреть онлайн бесплатно в хорошем качестве


    Вы не можете начинать темы
    Вы не можете отвечать на сообщения
    Вы не можете редактировать свои сообщения
    Вы не можете удалять свои сообщения
    Вы не можете голосовать в опросах
    Вы не можете прикреплять файлы к сообщениям
    Вы можете скачивать файлы