>

7.4

iTunes

7.4

2 сезон

9.4

1 сезон

1

7.4

2 сезон

7.2

iTunes

6.0

MVO

13

6.1

iTunes

8.3

Пиратка

30

ULTIMATE

pack

9.9

Лицензия

ВАЖНО

ИГРА 18+

pack

7.3

RePack

MK11

7.7

RePack

jed

7.8

RePack

fifa19

8.5

RePack

RDR2

RePack

NEED FOR SPEED™ PAYBACK

1 сезон

9 сезон

Бесстыжие 9 сезон

Все сериалы

все сериалы на PB.wtf

RePack

FAR CRY 5

Anonymous, добрый вечер, мы катастрофически не успеваем собрать деньги на оплату серверов, помогите нам пожалуйста 5,10,15р., для нас важна любая помощь . В качестве благодарности мы отключим Вам всю рекламу на сайте (укажите свой ник в строку Ваше имя)!

×
  
Magnet ссылка

Почти стемнело / Сумрак / С приходом Тьмы / Near Dark (Кэтрин Бигелоу) [1987 г., ужасы, боевик, триллер, HDRip, Авторский (одноголосый закадровый) Ю. Живов ] pb.wtf

Почти стемнело через торрент pb.wtf

Размер: 1.46 GB | Добавлен: 5 лет 5 мес. назад | Торрент скачан:18 раз
Смотреть онлайн Почти стемнело | Скачать    Ребята, помогите собрать деньги на оплату серверов!!!

16-08-2016 19:53 Почти стемнело Скачать торрент  

Почти стемнело / Сумрак / С приходом Тьмы / Near Dark Год выпуска: 1987
Страна: США
Жанр: ужасы, боевик, триллер
Продолжительность: 01:34:13
Перевод: Авторский (одноголосый закадровый) Ю. Живов
Субтитры: Отсутствуют

Режиссер: Кэтрин Бигелоу
Продюссер: Стивен-Чарльз Джаффе, Марк Аллан, Эдвард С. Фельдман
Сценарий: Кэтрин Бигелоу, Эрик Ред

Бюджет: $5 000 000
Премьера в мире: 12 сентября 1987

лицам до 17 лет обязательно присутствие взрослого
http://www.imdb.com/title/tt0093605/



В ролях: Адриан Пасдар, Дженни Райт, Лэнс Хенриксен, Билл Пэкстон, Дженет Голдштейн, Тим Томерсон, Джошуа Джон Миллер, Марси Лидз, Кенни Колл, Эд Корбетт

Описание: Молодой парень знакомится с очаровательной девушкой, которая при ближайшем рассмотрении оказывается вампиршей. «Вампиризм» — болезнь заразная, и после страстного поцелуя парень постепенно тоже должен стать вампиром.

Девушка же, как оказалось, входит в целый вампирный клан, который разъезжает на стареньком фургончике по дорогам Техаса. Днем вампиры отсыпаются в мотелях, а по ночам выходят на «тихую охоту». Полиция против них бессильна, т. к. пуля их не берет: они боятся лишь солнечного света.

Вампиры готовы принять парня в свой клан, но для этого он должен сам убить свою первую жертву…


Качество: HDRip
Формат: AVI
Видео кодек: XviD
Аудио кодек: AC3
Видео: 720x384 (1.88:1), 23.976 fps, XviD build 50 ~1764 kbps avg, 0.27 bit/pixel
Аудио#1: 48 kHz, AC3 Dolby Digital, 3/2 (L,C,R,l,r) + LFE ch, ~448 kbps
скриншот  скриншот  скриншот  скриншот  скриншот  скриншот  скриншот  

Код:

General
Complete name                            : E:\Sumrak.avi
Format                                   : AVI
Format/Info                              : Audio Video Interleave
File size                                : 1.46 GiB
Duration                                 : 1h 34mn
Overall bit rate                         : 2 222 Kbps
Movie name                               : Sumrak
Director                                 : Шкод@
Writing application                      : VirtualDubMod 1.5.10.2 (build 2540/release)
Copyright                                : http://rutracker.org

Video
ID                                       : 0
Format                                   : MPEG-4 Visual
Format profile                           : Advanced Simple@L5
Format settings, BVOP                    : 1
Format settings, QPel                    : No
Format settings, GMC                     : No warppoints
Format settings, Matrix                  : Default (MPEG)
Codec ID                                 : XVID
Codec ID/Hint                            : XviD
Duration                                 : 1h 34mn
Bit rate                                 : 1 765 Kbps
Width                                    : 720 pixels
Height                                   : 384 pixels
Display aspect ratio                     : 1.85:1
Frame rate                               : 23.976 fps
Color space                              : YUV
Chroma subsampling                       : 4:2:0
Bit depth                                : 8 bits
Scan type                                : Progressive
Compression mode                         : Lossy
Bits/(Pixel*Frame)                       : 0.266
Stream size                              : 1.16 GiB (79%)
Writing library                          : XviD 1.2.1 (UTC 2008-12-04)

Audio
ID                                       : 1
Format                                   : AC-3
Format/Info                              : Audio Coding 3
Mode extension                           : CM (complete main)
Format settings, Endianness              : Big
Codec ID                                 : 2000
Duration                                 : 1h 34mn
Bit rate mode                            : Constant
Bit rate                                 : 448 Kbps
Channel count                            : 6 channels
Channel positions                        : Front: L C R, Side: L R, LFE
Sampling rate                            : 48.0 KHz
Bit depth                                : 16 bits
Compression mode                         : Lossy
Stream size                              : 302 MiB (20%)
Alignment                                : Aligned on interleaves
Interleave, duration                     : 42 ms (1.00 video frame)
Interleave, preload duration             : 512 ms


pb.wtf



Скачать Почти стемнело через торрент http://s013.radikal.ru/i323/1608/ea/f2fde1089efb.png Скачать, смотреть онлайн Почти стемнело бесплантно в хорошем качестве Описание: Молодой парень знакомится с очаровательной девушкой, которая при ближайшем рассмотрении оказывается вампиршей. «Вампиризм» — ... 5.5 10 2
Торрент: Зарегистрирован [2016-08-16 19:53] · скачан: 18 раз
Статус: √ проверено
Размер: 1.46 GB
Как cкачать? Как скачать Почти стемнело через торрент | UTorrent

28-11-2019 20:33  

Отключить всю рекламу на сайте

17-08-2016 00:53 Почти стемнело Скачать торрент  

Откуда столько переводов названия фильма?pb.wtf



17-08-2016 05:28 Почти стемнело Скачать торрент  

bober100 писал(а):

Откуда столько переводов названия фильма?

вот такое вот кино))))pb.wtf



    Дорогой пользователь! Огромная просьба, поблагодарите релизера, оцените раздачу и оставьте свои комментарий, если Вы скачали Почти стемнело через торрент бесплатно!
    Комментировать посты могут только пользователи прошедшие не сложную регистрацию
    Показать сообщения:    

    Почти стемнело через торрент
    Скачать бесплатно Почти стемнело
    Почти стемнело скачать торрент
    Почти стемнело смотреть онлайн
    Cкачать фильм Почти стемнело бесплатно
    Почти стемнело скачать торрент в хорошем качестве
    Почти стемнело смотреть онлайн бесплатно в хорошем качестве


    Вы не можете начинать темы
    Вы не можете отвечать на сообщения
    Вы не можете редактировать свои сообщения
    Вы не можете удалять свои сообщения
    Вы не можете голосовать в опросах
    Вы не можете прикреплять файлы к сообщениям
    Вы можете скачивать файлы