Ссылка на приватное зеркало всего за 1$. Внимание количество ограничено!!!

iTunes

iTunes

iTunes

1

iTunes

iTunes

iTunes

iTunes

iTunes

30
pack

$ от Little Big

ВАЖНО

!!Акция!!

Alien_RageХит недели

RePack

Resident Evil 21

ИГРА 18+

pack

RePack

jed

!!Акция!!

Alien_Rage

RePack

fifa19

RePack

Assassins Creed: Odyssey

RePack

NEED FOR SPEED™ PAYBACK

4 сезон

9 сезон

Бесстыжие 9 сезон

Все сериалы

все сериалы на PB.wtf

RePack

FAR CRY 5
  

Угонщик / Hijacker (Максим Кулагин) [2015 г., короткометражка, драма, криминал, ужасы, WEB-DLRip, Русский] pb.wtf

Угонщик через торрент pb.wtf

Размер: 224 MB | Добавлен: 3 года 9 мес. назад | Торрент скачан:473 раза
Скачать  

17-08-2016 05:54 Угонщик Скачать торрент  


Угонщик / Hijacker
Год выпуска: 2015
Страна: Россия
Жанр: короткометражка, драма, криминал, ужасы
Продолжительность: 00:25:29
Перевод: Не требуется Русский
Субтитры: Отсутствуют

Режиссер: Максим Кулагин
Продюссер: Екатерина Филиппова
Сценарий: Денис Кулагин, Максим Кулагин

Премьера в мире: 12 июня 2015

лицам до 18 лет обязательно присутствие взрослого


В ролях: Александр Петров, Дмитрий Чеботарёв, Антон Филипенко, Ольга Хохлова, Антон Лапенко, Евгений Сергеев

Описание: Двое друзей занимаются хищениями автомобилей с целью вымогательства денег у их хозяев. Очередной угон проходит гладко. Владелец авто соглашается заплатить, но выдвигает неожиданное условие.

Качество: WEB-DLRip
Формат: AVI
Видео кодек: XviD
Аудио кодек: MP3
Видео: 720х480 (2.40:1), 25 fps, XviD MPEG-4 ~1088 kbps avg, 0.105 bit/pixel
Аудио#1: 48 kHz, MPEG Layer 3, 2 ch, ~128.00 kbps avg
скриншот  скриншот  скриншот  скриншот  скриншот  

Код:

General
Complete name                            : E:\Угонщик.2015.avi
Format                                   : AVI
Format/Info                              : Audio Video Interleave
File size                                : 224 MiB
Duration                                 : 25mn 29s
Overall bit rate mode                    : Variable
Overall bit rate                         : 1 229 Kbps
Writing application                      : Lavf56.1.100

Video
ID                                       : 1
Format                                   : MPEG Video
Format version                           : Version 2
Format profile                           : Main@Main
Format settings, BVOP                    : No
Format settings, Matrix                  : Default
Format settings, GOP                     : N=12
Codec ID                                 : mpg2
Codec ID/Info                            : (MPEG-1/2) FFmpeg
Codec ID/Hint                            : Ffmpeg
Duration                                 : 25mn 29s
Bit rate mode                            : Variable
Bit rate                                 : 1 088 Kbps
Width                                    : 720 pixels
Height                                   : 480 pixels
Display aspect ratio                     : 2.40:1
Original display aspect ratio            : 2.2:1
Frame rate                               : 30.000 fps
Standard                                 : NTSC
Color space                              : YUV
Chroma subsampling                       : 4:2:0
Bit depth                                : 8 bits
Scan type                                : Progressive
Compression mode                         : Lossy
Bits/(Pixel*Frame)                       : 0.105
Stream size                              : 198 MiB (89%)

Audio
ID                                       : 0
Format                                   : MPEG Audio
Format version                           : Version 1
Format profile                           : Layer 3
Mode                                     : Joint stereo
Mode extension                           : MS Stereo
Codec ID                                 : 55
Codec ID/Hint                            : MP3
Duration                                 : 25mn 29s
Bit rate mode                            : Constant
Bit rate                                 : 128 Kbps
Channel count                            : 2 channels
Sampling rate                            : 44.1 KHz
Compression mode                         : Lossy
Stream size                              : 23.3 MiB (10%)
Alignment                                : Aligned on interleaves
Interleave, duration                     : 33 ms (1.00 video frame)
Writing library                          : LAME3.99.5


pb.wtf



Скачать Угонщик через торрент http://s020.radikal.ru/i714/1608/52/d3d513fd057c.png Скачать фильм Угонщик через торрент бесплантно в хорошем качестве Описание: Двое друзей занимаются хищениями автомобилей с целью вымогательства денег у их хозяев. Очередной угон проходит гладко. Владелец ... 9.3 10 9
Торрент: Зарегистрирован [2016-08-17 05:54] · скачан: 473 раз
Статус: √ проверено
Размер: 224 MB
Как cкачать? Как скачать Угонщик через торрент | qTorrent



Последний раз редактировалось: sanekbest1 (2016-08-17 11:13), всего редактировалось 1 раз

28-11-2019 20:33  

Отключить всю рекламу на сайте

17-08-2016 17:40 Угонщик Скачать торрент  

ебала жаба гадюку... что это вообще было... эта шляпометражка за свои 20 с лишним минут полностью обосрала все фильмы такого рода сюжета... я в шоке ))) концовка поразительна тупа как и должна быть))) до слез )))pb.wtf



  Мат, выдал Ворон

17-08-2016 17:42 Угонщик Скачать торрент  

ох и говнецо... но стоящее чтобы его посмотреть))) советуюpb.wtf



23-08-2019 17:52 Угонщик Скачать торрент  

Короткометражка прям огонь, даже тянет на продолжение в таком же стиле! Еще смотрел её, когда Петров был не так популярен. Игра тогда его зацепила!pb.wtf



    Дорогой пользователь! Огромная просьба, поблагодарите релизера, оцените раздачу и оставьте свои комментарий, если Вы скачали Угонщик через торрент бесплатно! Внесите свою лепту в развитие PiratBit!
    Комментировать посты могут только пользователи прошедшие не сложную регистрацию
    Показать сообщения:    

    Угонщик через торрент
    Скачать бесплатно Угонщик
    Угонщик скачать торрент
    Угонщик смотреть онлайн
    Cкачать фильм Угонщик бесплатно
    Угонщик скачать торрент в хорошем качестве
    Угонщик смотреть онлайн бесплатно в хорошем качестве


    Вы не можете начинать темы
    Вы не можете отвечать на сообщения
    Вы не можете редактировать свои сообщения
    Вы не можете удалять свои сообщения
    Вы не можете голосовать в опросах
    Вы не можете прикреплять файлы к сообщениям
    Вы можете скачивать файлы