новый адрес пиратбит piratbit
Мега распродажа FORZA HORIZON 4 ULTIMATE+ВСЕ DLC+ОНЛАЙН всего за 499р. 349 руб. (супер цена). Внимание количество ограничено!!!

iTunes

1+1

iTunes

мы

iTunes

1

iTunes

Чернобыль

iTunes

Ральф против интернета

Лицензия

ПШазам

Лицензия

Игра престолов

Лицензия

30
pack

ВАЖНО

!!Акция!!

Alien_RageХит недели

RePack

Resident Evil 21

ИГРА 18+

pack

RePack

Metro:Exodus

!!Акция!!

Alien_Rage

RePack

fifa19

RePack

Assassins Creed: Odyssey

RePack

NEED FOR SPEED™ PAYBACK

3 сезон

9 сезон

Бесстыжие 9 сезон

Все сериалы

все сериалы на PB.wtf

RePack

FAR CRY 5
Ребята, катастрофически не хватает 1900р. для оплаты серверов за Октябрь (всвязи с блокировками трафик упал в 3 раза), 1-2р., выручайте.
  

Урок жизни (Юлий Райзман) [1955, СССР, драма, SATRip от AVP Studio] pb.wtf

Урок жизни через торрент pb.wtf

Размер: 1.46 GB | Добавлен: 3 года 2 мес. назад | Торрент скачан:14 раз
Скачать  

17-08-2016 09:44 Урок жизни Скачать торрент  

Урок жизни
Страна: СССР
Производство: Мосфильм

Жанр: драма
Год выпуска: 1955
Продолжительность: 01:45:35

Перевод: Не требуется
Cубтитры: нет
Оригинальная аудиодорожка: русский

Режиссер: Юлий Райзман

В ролях:
Валентина Калинина, Иван Переверзев, Ольга Аросева, Георгий Куликов, Маргарита Юрьева, Виктор Авдюшко, Ирина Акташева, Федор Шиманский, Евгений Весник, Андрюша Михайлов...
Полный список актёров

Описание:
Наташа бросает учебу в пединституте и едет с Сергеем на стройку. Успехи мужа делают его все более самоуверенным и грубым. Она же чувствует себя одинокой и чужой в собственной семье. Наступает момент, когда Наташа уже не может примириться ни с бесполезностью своей жизни, ни с его вероломством. Она уезжает, завершает учебу в институте и становится учительницей. Но тревожные мысли о Сергее не оставляют ее ни на минуту...

Источник: DVB
Качество видео: SATRip
Формат видео: AVI

Видео: 704x512 (1,375:1), 25 fps, XviD ~ 1778 kbps avg, 0.197 bit/pixel
Аудио: 48 kHz, Dolby Digital AC3 2.0, 192 kbps

Раздача от:
Общее
Полное имя : Urok.zhizni.1955.SATRip_[New-team]_by_AVP_Studio.avi
Формат : AVI
Формат/Информация : Audio Video Interleave
Размер файла : 1,46 Гбайт
Продолжительность : 1 ч. 45 м.
Общий поток : 1979 Кбит/сек
Программа кодирования : VirtualDubMod 1.5.10.3 | www.virtualdub-fr.org || (build 2550/release)
Библиотека кодирования : VirtualDubMod build 2550/release

Видео
Идентификатор : 0
Формат : MPEG-4 Visual
Профиль формата : Advanced Simple@L5
Параметр BVOP формата : 1
Параметр QPel формата : Нет
Параметр GMC формата : Без точки перехода
Параметр матрицы формата : Выборочная
Идентификатор кодека : XVID
Идентификатор кодека/Подсказка : XviD
Продолжительность : 1 ч. 45 м.
Битрейт : 1778 Кбит/сек
Ширина : 704 пикселя
Высота : 512 пикселей
Соотношение сторон : 1,375
Частота кадров : 25,000 кадров/сек
Цветовое пространство : YUV
Субдискретизация насыщенности : 4:2:0
Битовая глубина : 8 бит
Тип развёртки : Прогрессивная
Метод сжатия : С потерями
Бит/(Пиксели*Кадры) : 0.197
Размер потока : 1,31 Гбайт (90%)
Библиотека кодирования : XviD 1.2.1 (UTC 2008-12-04)

Аудио
Идентификатор : 1
Формат : AC-3
Формат/Информация : Audio Coding 3
Расширение режима : CM (complete main)
Параметр Endianness формата : Big
Идентификатор кодека : 2000
Продолжительность : 1 ч. 45 м.
Вид битрейта : Постоянный
Битрейт : 192 Кбит/сек
Каналы : 2 канала
Расположение каналов : Front: L R
Частота : 48,0 КГц
Частота кадров : 31,250 кадров/сек (1536 spf)
Метод сжатия : С потерями
Размер потока : 145 Мбайт (10%)
Выравнивание : Разделение по промежуткам
Продолжительность промежутка : 40 мс. (1,00 видеокадр)
Время предзагрузки промежутка : 500 мс
pb.wtf



Скачать Урок жизни через торрент http://s019.radikal.ru/i641/1608/ef/0598ffed8ff3.png Скачать фильм Урок жизни через торрент бесплантно в хорошем качестве Описание:Наташа бросает учебу в пединституте и едет с Сергеем на стройку. Успехи мужа делают его все более самоуверенным и грубым. Она же ... 10 10 1
Info! Золотая раздача, скачанное не засчитывается.
Торрент: Зарегистрирован [2016-08-17 09:44] · скачан: 14 раз
Статус: √ проверено
Размер: 1.46 GB
Как cкачать? Как скачать Урок жизни через торрент | qTorrent

% Раздел Тема Автор DL S | L
Кино СССР [ 746 MB ] Урок жизни [1955 СССР SATRip от AVP Studio] AVP Studio Скачать
1 | 0
Кино СССР [ 1.46 GB ] Урок жизни [1955 СССР SATRip-AVC от AVP Studio] AVP Studio Скачать
1 | 0


>> Регистрируемся здесь <<






Отзывы и комментарии о схеме читаем и пишем здесь: ---> Отзывы и комментарии о схеме

Новые благодарочки в телеграм довольных пользователей:
скриншот   скриншот   скриншот   скриншот   скриншот
    Дорогой пользователь! Огромная просьба, поблагодарите релизера, оцените раздачу и оставьте свои комментарий, если Вы скачали Урок жизни через торрент бесплатно! Внесите свою лепту в развитие PiratBit!
    Комментировать посты могут только пользователи прошедшие не сложную регистрацию
    Показать сообщения:    

    Урок жизни через торрент
    Скачать бесплатно Урок жизни
    Урок жизни скачать торрент
    Урок жизни смотреть онлайн
    Cкачать фильм Урок жизни бесплатно
    Урок жизни скачать торрент в хорошем качестве
    Урок жизни смотреть онлайн бесплатно в хорошем качестве


    Вы не можете начинать темы
    Вы не можете отвечать на сообщения
    Вы не можете редактировать свои сообщения
    Вы не можете удалять свои сообщения
    Вы не можете голосовать в опросах
    Вы не можете прикреплять файлы к сообщениям
    Вы можете скачивать файлы