Присоединяйтесь к нам в Telegram!, здесь всегда актуальный адрес сайта, оперативная поддержка и многое другое!!

>

5.9

iTunes

7.4

iTunes

9.4

1 сезон

1

7.4

2 сезон

7.2

iTunes

7.3

1 сезон

13

6.1

iTunes

8.3

GOG

30

ULTIMATE

pack

9.9

Лицензия

ВАЖНО

ИГРА 18+

pack

7.3

RePack

MK11

7.7

RePack

jed

7.8

RePack

fifa19

8.5

RePack

RDR2

RePack

NEED FOR SPEED™ PAYBACK

5 сезон

9 сезон

Бесстыжие 9 сезон

Все сериалы

все сериалы на PB.wtf

RePack

FAR CRY 5

Anonymous, добрый вечер, мы катастрофически не успеваем собрать деньги на оплату серверов, помогите нам пожалуйста 5,10,15р., для нас важна любая помощь . В качестве благодарности мы отключим Вам всю рекламу на сайте (укажите свой ник в строку Ваше имя)!

×
  
Magnet ссылка

В квадрате 45 (Юрий Вышинский) [1955, СССР, приключения, шпионский фильм, SATRip от AVP Studio] pb.wtf

В квадрате 45 через торрент pb.wtf

Размер: 744 MB | Добавлен: 5 лет 3 мес. назад | Торрент скачан:19 раз
Смотреть онлайн В квадрате 45 | Скачать    Ребята, помогите собрать деньги на оплату серверов!!!

18-08-2016 07:15 В квадрате 45 Скачать торрент  

В квадрате 45
Страна: СССР
Производство: Мосфильм

Жанр: приключения, шпионский фильм
Год выпуска: 1955
Продолжительность: 01:04:22

Перевод: Не требуется
Cубтитры: нет
Оригинальная аудиодорожка: русский

Режиссер: Юрий Вышинский

В ролях:
Всеволод Платов, Маргарита Лифанова, Владимир Гуляев, Иван Кузнецов, Николай Хрящиков, Валентин Брылеев, Михаил Майоров, Борис Битюков, Татьяна Забродина, Иван Соловьёв, Владимир Зельдин, Иван Воронов, Александр Полинский...
Полный список актёров

Описание:
"Шпионский" фильм о летчиках и парашютистах пожарной части приграничной полосы, помогающих пограничникам в поимке незваных гостей.
Недалеко от границы расположилась авиационная база по охране лесов. Однажды команда парашютистов-пожарных вылетела на тушение пожара. Новичок Валентин Волгин проявил нерешительность - и запоздал с прыжком. Герой, мучительно переживая первую неудачу, стал избегать взглядов инструктора Ирины Алеевой. А когда команда получила задание по оказанию помощи пограничникам, Валентин после напряженной погони по пылающему лесу настиг и помог задержать диверсанта.

Источник: DVB
Качество видео: SATRip
Формат видео: AVI

Видео: 656x496 (4:3), 25 fps, XviD ~ 1415 kbps avg, 0.174 bit/pixel
Аудио: 48 kHz, Dolby Digital AC3 2.0, 192 kbps

Раздача от:
Общее
Полное имя : V.kvadrate.45.1955.SATRip_[New-team]_by_AVP_Studio.avi
Формат : AVI
Формат/Информация : Audio Video Interleave
Размер файла : 744 Мбайт
Продолжительность : 1 ч. 4 м.
Общий поток : 1616 Кбит/сек
Программа кодирования : VirtualDubMod 1.5.10.3 | www.virtualdub-fr.org || (build 2550/release)
Библиотека кодирования : VirtualDubMod build 2550/release

Видео
Идентификатор : 0
Формат : MPEG-4 Visual
Профиль формата : Advanced Simple@L5
Параметр BVOP формата : 1
Параметр QPel формата : Нет
Параметр GMC формата : Без точки перехода
Параметр матрицы формата : Выборочная
Идентификатор кодека : XVID
Идентификатор кодека/Подсказка : XviD
Продолжительность : 1 ч. 4 м.
Битрейт : 1415 Кбит/сек
Ширина : 656 пикселей
Высота : 496 пикселей
Соотношение сторон : 4:3
Частота кадров : 25,000 кадров/сек
Цветовое пространство : YUV
Субдискретизация насыщенности : 4:2:0
Битовая глубина : 8 бит
Тип развёртки : Прогрессивная
Метод сжатия : С потерями
Бит/(Пиксели*Кадры) : 0.174
Размер потока : 651 Мбайт (88%)
Библиотека кодирования : XviD 1.2.1 (UTC 2008-12-04)

Аудио
Идентификатор : 1
Формат : AC-3
Формат/Информация : Audio Coding 3
Расширение режима : CM (complete main)
Параметр Endianness формата : Big
Идентификатор кодека : 2000
Продолжительность : 1 ч. 4 м.
Вид битрейта : Постоянный
Битрейт : 192 Кбит/сек
Каналы : 2 канала
Расположение каналов : Front: L R
Частота : 48,0 КГц
Частота кадров : 31,250 кадров/сек (1536 spf)
Метод сжатия : С потерями
Размер потока : 88,4 Мбайт (12%)
Выравнивание : Разделение по промежуткам
Продолжительность промежутка : 40 мс. (1,00 видеокадр)
Время предзагрузки промежутка : 500 мс
pb.wtf



Скачать В квадрате 45 через торрент http://s48.radikal.ru/i119/1608/08/0750d7e14107.png Скачать, смотреть онлайн В квадрате 45 бесплантно в хорошем качестве Описание:"Шпионский" фильм о летчиках и парашютистах пожарной части приграничной полосы, помогающих пограничникам в поимке незваных ... 10 10 1
Info! Золотая раздача, скачанное не засчитывается.
Торрент: Зарегистрирован [2016-08-18 07:15] · скачан: 19 раз
Статус: √ проверено
Размер: 744 MB
Как cкачать? Как скачать В квадрате 45 через торрент | UTorrent

% Раздел Тема Автор DL S | L
Кино СССР [ 744 MB ] В квадрате 45 [1955 СССР шпионский фильм SATRip-AVC от AVP Studio] AVP Studio Скачать
1 | 0

28-11-2019 20:33  

Отключить всю рекламу на сайте

    Дорогой пользователь! Огромная просьба, поблагодарите релизера, оцените раздачу и оставьте свои комментарий, если Вы скачали В квадрате 45 через торрент бесплатно!
    Комментировать посты могут только пользователи прошедшие не сложную регистрацию
    Показать сообщения:    

    В квадрате 45 через торрент
    Скачать бесплатно В квадрате 45
    В квадрате 45 скачать торрент
    В квадрате 45 смотреть онлайн
    Cкачать фильм В квадрате 45 бесплатно
    В квадрате 45 скачать торрент в хорошем качестве
    В квадрате 45 смотреть онлайн бесплатно в хорошем качестве


    Вы не можете начинать темы
    Вы не можете отвечать на сообщения
    Вы не можете редактировать свои сообщения
    Вы не можете удалять свои сообщения
    Вы не можете голосовать в опросах
    Вы не можете прикреплять файлы к сообщениям
    Вы можете скачивать файлы