MEGA SALE -50% FORZA HORIZON 4 ULTIMATE+ВСЕ DLC+ОНЛАЙН всего за 599р. 299 руб. (супер цена). Внимание количество ограничено!!!

iTunes

1+1

iTunes

мы

iTunes

1

iTunes

Чернобыль

iTunes

Ральф против интернета

Лицензия

ПШазам

Лицензия

Игра престолов

Лицензия

30
pack

ВАЖНО

!!Акция!!

Alien_RageХит недели

RePack

Resident Evil 21

ИГРА 18+

pack

RePack

Metro:Exodus

!!Акция!!

Alien_Rage

RePack

fifa19

RePack

Assassins Creed: Odyssey

RePack

NEED FOR SPEED™ PAYBACK

3 сезон

9 сезон

Бесстыжие 9 сезон

Все сериалы

все сериалы на PB.wtf

RePack

FAR CRY 5
Ребята, катастрофически не хватает 7730р. для оплаты серверов за АВГУСТ (всвязи с блокировками трафик упал в 3 раза), 1-2р., выручайте.
  

Однажды на Диком Западе / C'era una volta il West (Серджио Леоне) [1968 г., драма, вестерн, BDRip-AVC] MVO pb.wtf

Однажды на Диком Западе через торрент pb.wtf

Размер: 4.26 GB | Добавлен: 3 года назад | Торрент скачан:113 раз
Скачать  

19-08-2016 18:18 Однажды на Диком Западе Скачать торрент  

Однажды на Диком Западе / C'era una volta il West
Год выпуска: 1968
Страна: США, Италия, Испания, Мексика
Жанр: драма, вестерн
Продолжительность: 02:46:01
Перевод: Профессиональный (многоголосый) [SomeWax]
Субтитры: Русские (Full), английские (Full), английские (SDH)

Режиссер: Серджио Леоне
Продюссер: Фульвио Морселла, Бино Чиконья
Сценарий: Серджио Леоне, Серджо Донати, Дарио Ардженто

Бюджет: $5 000 000
Премьера в мире: 21 декабря 1968





В ролях: Чарльз Бронсон, Генри Фонда, Клаудия Кардинале, Джейсон Робардс, Габриэле Ферцетти, Паоло Стоппа, Вуди Строуд, Джек Илэм, Кинэн Уинн, Фрэнк Вулф

Описание: Молодая вдова отказывается продать ферму дельцу, задумавшему проложить по этой земле железную дорогу, и тогда он заказывает ее убийство, нанимая лучшего на Диком Западе стрелка. На защиту красавицы встают известный бандит Шайен и таинственный бродяга. Трое сильных мужчин сойдутся в смертельном хороводе, выхода из которого может и не быть.

Качество: BDRip-AVC
Формат: MKV
Видео кодек: H.264
Аудио кодек: AC3
Видео: MPEG-4 AVC, 2900 Кбит/с, 1024x432, 23.976 кадр/с
Аудио#1: AC3, 6 ch, 384 Кбит/с, 48 kHz | Русский
Аудио#2: AC3, 6 ch, 384 Кбит/с, 48 kHz | Английский
Релиз от: Koenig
General
Unique ID : 204250497449172997057951460583975370182 (0x99A93704F41B894AB068DCBDCC073DC6)
Complete name : Once.Upon.A.Time.In.The.West.1968.BDRip-AVC.mkv
Format : Matroska
Format version : Version 4 / Version 2
File size : 4.26 GiB
Duration : 2h 46mn
Overall bit rate : 3 670 Kbps
Director : Sergio Leone
Encoded date : UTC 2016-08-19 17:08:28
Writing application : mkvmerge v9.2.0 ('Photograph') 32bit
Writing library : libebml v1.3.3 + libmatroska v1.4.4
Cover : Yes
Attachments : cover.jpg
Release : Koenig

Video
ID : 1
Format : AVC
Format/Info : Advanced Video Codec
Format profile : High@L4.1
Format settings, CABAC : Yes
Format settings, ReFrames : 9 frames
Codec ID : V_MPEG4/ISO/AVC
Duration : 2h 46mn
Bit rate : 2 899 Kbps
Width : 1 024 pixels
Height : 432 pixels
Display aspect ratio : 2.40:1
Frame rate mode : Constant
Frame rate : 23.976 (24000/1001) fps
Color space : YUV
Chroma subsampling : 4:2:0
Bit depth : 8 bits
Scan type : Progressive
Bits/(Pixel*Frame) : 0.273
Stream size : 3.36 GiB (79%)
Writing library : x264 core 148 r2692 64f4e24
Encoding settings : cabac=1 / ref=9 / deblock=1:-3:-3 / analyse=0x3:0x133 / me=umh / subme=10 / psy=1 / psy_rd=1.00:0.00 / mixed_ref=1 / me_range=32 / chroma_me=1 / trellis=2 / 8x8dct=1 / cqm=0 / deadzone=21,11 / fast_pskip=0 / chroma_qp_offset=-2 / threads=3 / lookahead_threads=1 / sliced_threads=0 / nr=0 / decimate=1 / interlaced=0 / bluray_compat=0 / constrained_intra=0 / bframes=11 / b_pyramid=2 / b_adapt=2 / b_bias=0 / direct=3 / weightb=1 / open_gop=0 / weightp=2 / keyint=240 / keyint_min=23 / scenecut=40 / intra_refresh=0 / rc_lookahead=40 / rc=2pass / mbtree=1 / bitrate=2899 / ratetol=1.0 / qcomp=0.60 / qpmin=10 / qpmax=51 / qpstep=4 / cplxblur=20.0 / qblur=0.5 / vbv_maxrate=50000 / vbv_bufsize=62500 / nal_hrd=none / filler=0 / ip_ratio=1.40 / aq=1:1.00
Default : Yes
Forced : No

Audio #1
ID : 2
Format : AC-3
Format/Info : Audio Coding 3
Mode extension : CM (complete main)
Format settings, Endianness : Big
Codec ID : A_AC3
Duration : 2h 46mn
Bit rate mode : Constant
Bit rate : 384 Kbps
Channel(s) : 6 channels
Channel positions : Front: L C R, Side: L R, LFE
Sampling rate : 48.0 KHz
Frame rate : 31.250 fps (1536 spf)
Compression mode : Lossy
Stream size : 456 MiB (10%)
Title : MVO - SomeWax
Language : Russian
Default : Yes
Forced : No

Audio #2
ID : 3
Format : AC-3
Format/Info : Audio Coding 3
Mode extension : CM (complete main)
Format settings, Endianness : Big
Codec ID : A_AC3
Duration : 2h 46mn
Bit rate mode : Constant
Bit rate : 384 Kbps
Channel(s) : 6 channels
Channel positions : Front: L C R, Side: L R, LFE
Sampling rate : 48.0 KHz
Frame rate : 31.250 fps (1536 spf)
Compression mode : Lossy
Stream size : 456 MiB (10%)
Title : Original
Language : English
Default : No
Forced : No

Text #1
ID : 4
Format : UTF-8
Codec ID : S_TEXT/UTF8
Codec ID/Info : UTF-8 Plain Text
Duration : 2h 43mn
Bit rate : 34 bps
Count of elements : 783
Stream size : 42.0 KiB (0%)
Title : Full - SomeWax
Language : Russian
Default : Yes
Forced : No

Text #2
ID : 5
Format : UTF-8
Codec ID : S_TEXT/UTF8
Codec ID/Info : UTF-8 Plain Text
Duration : 2h 38mn
Bit rate : 20 bps
Count of elements : 779
Stream size : 23.7 KiB (0%)
Title : Full
Language : English
Default : No
Forced : No

Text #3
ID : 6
Format : UTF-8
Codec ID : S_TEXT/UTF8
Codec ID/Info : UTF-8 Plain Text
Duration : 2h 43mn
Bit rate : 22 bps
Count of elements : 950
Stream size : 26.8 KiB (0%)
Title : SDH
Language : English
Default : No
Forced : No

Menu
00:00:00.000 : en: 1. Waiting for the Flagstone Train
00:10:24.415 : en: 2. Harmonica Arrives at the Station
00:15:12.077 : en: 3. The Mcbain Family
00:20:40.030 : en: 4. Now That You've Called Me By Name
00:24:39.311 : en: 5. Jill Left Alone
00:33:13.032 : en: 6. Cheyenne Makes an Entrance
00:42:40.849 : en: 7. False Notes
00:46:48.347 : en: 8. Mrs. Jill Mcbain
00:54:12.332 : en: 9. Harmonica Looks for Frank
00:56:51.407 : en:10. The Toy Station
00:59:00.870 : en:11. A Bandit Who Smells Money
01:06:53.050 : en:12. Many Kinds of Weapons
01:12:20.461 : en:13. You Deserve Better
01:20:02.797 : en:14. The Track to Frank
01:23:05.313 : en:15. End of the Line
01:29:33.618 : en:16. Easy to Find You
01:35:21.257 : en:17. No More Useless Killings
01:38:48.047 : en:18. The Dream of a Lifetime
01:43:13.812 : en:19. Just Another Filthy Memory
01:48:07.606 : en:20. The Auction
01:50:37.881 : en:21. Morton's Game
01:55:01.185 : en:22. Five Thousand Dollars
01:58:54.335 : en:23. Offer Refused: Frank Losses a Dollar
02:04:41.223 : en:24. Shadows on the Clock
02:10:41.667 : en:25. Morton Hears the Atlantic
02:15:36.253 : en:26. Only at the Point of Dying
02:23:07.662 : en:27. Showdown
02:26:03.588 : en:28. Harmonica's Memory
02:29:33.964 : en:29. Harmonica Returns His Name
02:32:00.444 : en:30. Come Back Some Day
02:37:29.690 : en:31. Farewell Cheyenne
02:41:31.056 : en:32. Train Pulls Into Sweetwater Station
02:44:04.584 : en:33. Closing Credits

pb.wtf



Скачать Однажды на Диком Западе через торрент http://pic1.kartinco.top/images/10/3rpk4.jpg Скачать фильм Однажды на Диком Западе через торрент бесплантно в хорошем качестве Описание: Молодая вдова отказывается продать ферму дельцу, задумавшему проложить по этой земле железную дорогу, и тогда он заказывает ее ... 6.7 10 3
Info! Золотая раздача, скачанное не засчитывается.
Торрент: Зарегистрирован [2016-08-19 18:18] · скачан: 113 раз
Статус: √ проверено
Размер: 4.26 GB
Как cкачать? Как скачать Однажды на Диком Западе через торрент | qTorrent



Последний раз редактировалось: koenig (2016-08-19 19:13), всего редактировалось 1 раз


>> Регистрируемся здесь <<






Отзывы и комментарии о схеме читаем и пишем здесь: ---> Отзывы и комментарии о схеме

Новые благодарочки в телеграм довольных пользователей:
скриншот   скриншот   скриншот   скриншот   скриншот

19-08-2016 19:00 Однажды на Диком Западе Скачать торрент  

Старый, добрый вестерн)pb.wtf



19-08-2016 20:40 Однажды на Диком Западе Скачать торрент  

Шикарный фильм,сто раз уже пересмотрел.pb.wtf



    Дорогой пользователь! Огромная просьба, поблагодарите релизера, оцените раздачу и оставьте свои комментарий, если Вы скачали Однажды на Диком Западе через торрент бесплатно! Внесите свою лепту в развитие PiratBit!
    Комментировать посты могут только пользователи прошедшие не сложную регистрацию
    Показать сообщения:    

    Однажды на Диком Западе через торрент
    Скачать бесплатно Однажды на Диком Западе
    Однажды на Диком Западе скачать торрент
    Однажды на Диком Западе смотреть онлайн
    Cкачать фильм Однажды на Диком Западе бесплатно
    Однажды на Диком Западе скачать торрент в хорошем качестве
    Однажды на Диком Западе смотреть онлайн бесплатно в хорошем качестве


    Вы не можете начинать темы
    Вы не можете отвечать на сообщения
    Вы не можете редактировать свои сообщения
    Вы не можете удалять свои сообщения
    Вы не можете голосовать в опросах
    Вы не можете прикреплять файлы к сообщениям
    Вы можете скачивать файлы