Ссылка на приватное зеркало нашего сайта всего за 1$. Внимание количество ограничено!!!

2 сезон

iTunes

1 сезон

1

2 сезон

2 сезон

iTunes

1 сезон

RePack

30

Ultimate

ВАЖНО

ИГРА 18+

pack

RePack

MK11
pack

Забери бонус

RePack

jed

!!Акция!!

Alien_Rage

RePack

fifa19

RePack

Assassins Creed: Odyssey

RePack

NEED FOR SPEED™ PAYBACK

4 сезон

9 сезон

Бесстыжие 9 сезон

Все сериалы

все сериалы на PB.wtf

RePack

FAR CRY 5
  

Случай в Кеттеринге / Трагедия в Кеттеринге / The Kettering Incident / Сезон: 1 / Серии 1-8 из 8 (Роуэн Вудс , Тони Кравиц ) [2016 , триллер, драма, криминал, WEBRip] MVO [HamsterStudio] pb.wtf

Случай в Кеттеринге через торрент pb.wtf

Размер: 3.98 GB | Добавлен: 4 года 3 мес. назад | Торрент скачан:137 раз
Скачать  

20-08-2016 02:35 Случай в Кеттеринге Скачать торрент  

Случай в Кеттеринге / Трагедия в Кеттеринге / The Kettering Incident

Год выпуска: 2016
Страна: Австралия
Жанр: триллер, драма, криминал, детектив
Продолжительность: 00:52:55 (Серия)
Перевод: Любительский (многоголосый) [HamsterStudio]
Режиссер: Роуэн Вудс , Тони Кравиц
В ролях: Элизабет Дебики (Dr. Anna Macy), Мэттью Ле Невез (Brian Dutch), Генри Никсон (Fergus McFadden), Элисон Уайт (Deb Russell), Нил Пигот (Dominic Harrold), Энтони Фелан (Roy Macy), Дэймон Гамо (Jens Jorgensson), Дэмиен Гарви (Max Holloway), Саша Хорлер (Barbara Holloway), Брэд Каннегиссер (Adam Holloway), Сианоа Смит-МакФи (Chloe Holloway), Сьюзи Догерти (Renae Baxter)
Описание:
Главная героиня, доктор Анна Мэйси, непонятным образом очнулась в родном городе Кеттеринг, откуда она уехала 15 лет назад после исчезновения её подруги.
Рейтинг:

Качество: WEBRip
Формат: AVI
Видео: XviD, 720x400 (16:9), 1247 kbps, 25 fps, 0,173 bpp
Аудио: MP3 / 2.0 / 48 kHz / 128 kbps

Внимание! Раздача ведётся путём добавления новых серий; при каждом добавлении создаётся новый торрент. Чтобы начать докачку новой серии, пользователям необходимо сделать следующее:
(1) остановить скачивание,
(2) удалить старый торрент у себя из клиента (старые серии удалять не надо),
(3) скачать новый торрент и запустить его у себя в клиенте вместо старого, при этом указать клиенту путь в старую папку куда и должно происходить скачивание новых серий.
Ваш клиент при этом должен произвести хеширование (проверку) старой папки (если не производит сам - помогите ему сделать это), и будет докачивать только те серии которых у вас ещё нет. Старые серии при этом не удаляются, а продолжают раздаваться!
Eсли вы уже удалили старые серии, то предотвратить повторную закачку старых серий можно, отжав галочку в соответствующих местах при запуске нового торрента. По возможности, желательно не удалять старые серии как можно дольше чтобы релизёр не столько продолжал раздавать старые серии, а смог сконцентрироваться на новых.

General
Complete name : H:\The Kettering Inciden (season 01) HamsterStudio\The.Kettering.Incident.S01.E07.WEBRip.HamsterStudio.Org.avi
Format : AVI
Format/Info : Audio Video Interleave
File size : 524 MiB
Duration : 52mn 55s
Overall bit rate : 1 385 Kbps
Writing application : VirtualDubMod 1.5.10.2 (build 2540/release)
Writing library : VirtualDubMod build 2540/release

Video
ID : 0
Format : MPEG-4 Visual
Format profile : Advanced Simple@L5
Format settings, BVOP : 2
Format settings, QPel : No
Format settings, GMC : No warppoints
Format settings, Matrix : Default (H.263)
Muxing mode : Packed bitstream
Codec ID : XVID
Codec ID/Hint : XviD
Duration : 52mn 55s
Bit rate : 1 247 Kbps
Width : 720 pixels
Height : 400 pixels
Display aspect ratio : 16:9
Frame rate : 25.000 fps
Color space : YUV
Chroma subsampling : 4:2:0
Bit depth : 8 bits
Scan type : Progressive
Compression mode : Lossy
Bits/(Pixel*Frame) : 0.173
Stream size : 472 MiB (90%)
Writing library : XviD 66

Audio
ID : 1
Format : MPEG Audio
Format version : Version 1
Format profile : Layer 3
Mode : Joint stereo
Mode extension : MS Stereo
Codec ID : 55
Codec ID/Hint : MP3
Duration : 52mn 55s
Bit rate mode : Constant
Bit rate : 128 Kbps
Channel(s) : 2 channels
Sampling rate : 48.0 KHz
Compression mode : Lossy
Stream size : 48.5 MiB (9%)
Alignment : Aligned on interleaves
Interleave, duration : 40 ms (1.00 video frame)
Interleave, preload duration : 504 ms

[/code]






Скриншоты:
скриншот   скриншот   скриншот   скриншот   скриншот   скриншот   скриншот  
скриншот  

Раздача ведётся путём добавления новых серий. Добавлена 8 серия (23.08.2016).Просьба перекачать торрент файл.

pb.wtf



Скачать Случай в Кеттеринге через торрент http://i3.imageban.ru/out/2016/08/20/eed051f7c387d0012a748260e09f3542.jpg Скачать фильм Случай в Кеттеринге через торрент бесплантно в хорошем качестве Описание: Главная героиня, доктор Анна Мэйси, непонятным образом очнулась в родном городе Кеттеринг, откуда она уехала 15 лет назад после ... 8.9 10 10
Info! Золотая раздача, скачанное не засчитывается.
Торрент: Зарегистрирован [2016-08-23 00:41] · скачан: 137 раз
Статус: √ проверено
Размер: 3.98 GB
Как cкачать? Как скачать Случай в Кеттеринге через торрент | qTorrent

28-11-2019 20:33  

Отключить всю рекламу на сайте

23-08-2016 05:05 Случай в Кеттеринге Скачать торрент  

Как смотреть можно?pb.wtf



26-09-2016 19:49 Случай в Кеттеринге Скачать торрент  

HamsterStudio порадовала очередным неплохим сериалом, и что приятно сразу все серии.
Неплохой психологический сериал, для людей с фантазией и мозгами, заставляет подумать, не разжёвывает мысли героев, причины и следствия, не стандартный, не шаблонный. Рекомендую любителям мистических детективов.
Реклама задолбала! Буду ждать релиза без рекламы.pb.wtf



    Дорогой пользователь! Огромная просьба, поблагодарите релизера, оцените раздачу и оставьте свои комментарий, если Вы скачали Случай в Кеттеринге через торрент бесплатно! Внесите свою лепту в развитие PiratBit!
    Комментировать посты могут только пользователи прошедшие не сложную регистрацию
    Показать сообщения:    

    Случай в Кеттеринге через торрент
    Скачать бесплатно Случай в Кеттеринге
    Случай в Кеттеринге скачать торрент
    Случай в Кеттеринге смотреть онлайн
    Cкачать фильм Случай в Кеттеринге бесплатно
    Случай в Кеттеринге скачать торрент в хорошем качестве
    Случай в Кеттеринге смотреть онлайн бесплатно в хорошем качестве


    Вы не можете начинать темы
    Вы не можете отвечать на сообщения
    Вы не можете редактировать свои сообщения
    Вы не можете удалять свои сообщения
    Вы не можете голосовать в опросах
    Вы не можете прикреплять файлы к сообщениям
    Вы можете скачивать файлы