новый адрес пиратбит piratbit
Мега распродажа FORZA HORIZON 4 ULTIMATE+ВСЕ DLC+ОНЛАЙН всего за 499р. 349 руб. (супер цена). Внимание количество ограничено!!!

iTunes

1+1

iTunes

мы

iTunes

1

iTunes

Чернобыль

iTunes

Ральф против интернета

Лицензия

ПШазам

Лицензия

Игра престолов

Лицензия

30
pack

ВАЖНО

!!Акция!!

Alien_RageХит недели

RePack

Resident Evil 21

ИГРА 18+

pack

RePack

Metro:Exodus

!!Акция!!

Alien_Rage

RePack

fifa19

RePack

Assassins Creed: Odyssey

RePack

NEED FOR SPEED™ PAYBACK

3 сезон

9 сезон

Бесстыжие 9 сезон

Все сериалы

все сериалы на PB.wtf

RePack

FAR CRY 5
Ребята, катастрофически не хватает 1900р. для оплаты серверов за Октябрь (всвязи с блокировками трафик упал в 3 раза), 1-2р., выручайте.
  

Тёмная бухта / Dark Cove (Rob Willey) [2016 г., ужасы, триллер, HDRip, Любительский одноголосый Xixidok] pb.wtf

Тёмная бухта через торрент pb.wtf

Размер: 1.36 GB | Добавлен: 3 года 2 мес. назад | Торрент скачан:185 раз
Скачать  

20-08-2016 06:20 Тёмная бухта Скачать торрент  

Темная бухта / Dark Cove
«Секс, наркотики, убийство... хотите отправиться в такой поход?»
Год выпуска: 2016
Страна: Канада
Жанр: ужасы, триллер
Продолжительность: 01:24:05
Перевод: Любительский одноголосый Xixidok
Субтитры: English (внешние)

Режиссер: Rob Willey
Продюссер: Реан МакКинли, Rob Willey, Rob Abbate
Сценарий: Rob Willey

Бюджет: CAD 50 000
Премьера в мире: 2 августа 2016

лицам до 16 лет обязательно присутствие взрослого
http://www.imdb.com/title/tt2277834/



В ролях: Роб Виллей, Монтанна МаНэлли, Камерон Кросби, Кен Хант…

Описание: Пятеро друзей, устав от городской суеты, решают провести время на природе и забираются в один из отдаленных уголков находящегося в Канаде острова Ванкувер, чтобы поесть грибов. Там они знакомятся с тремя серфингистами из Австралии и устраивают совместную вечеринку, в ходе которой один из них пытается изнасиловать девушку. На этом отдых заканчивается и начинаются ужасы…

Качество: HDRip
Формат: AVI
Видео кодек: XviD
Аудио кодек: MP3
Видео: XviD, 1 731 Kbps, (2.35:1) 720x304, 23.976 fps, MPEG-4 Visual
Аудио#1: Russian: MP3, 192 Kb/s (2 ch),44.1 KHz
Аудио#2:English: AC3, 384 Kb/s (6 ch),48.0 KHz
скриншот  скриншот  скриншот  скриншот  скриншот  

Код:

General
Complete name                            : E:\Dark Cove (2016) HDRip.avi
Format                                   : AVI
Format/Info                              : Audio Video Interleave
Format profile                           : OpenDML
Format settings                          : rec
File size                                : 1.36 GiB
Duration                                 : 1h 24mn
Overall bit rate                         : 2 313 Kbps
Writing application                      : AVI-Mux GUI 1.17.8.3, Feb 16 201019:42:50

Video
ID                                       : 0
Format                                   : MPEG-4 Visual
Format profile                           : Advanced Simple@L5
Format settings, BVOP                    : 2
Format settings, QPel                    : No
Format settings, GMC                     : No warppoints
Format settings, Matrix                  : Default (H.263)
Muxing mode                              : Packed bitstream
Codec ID                                 : XVID
Codec ID/Hint                            : XviD
Duration                                 : 1h 24mn
Bit rate                                 : 1 731 Kbps
Width                                    : 720 pixels
Height                                   : 304 pixels
Display aspect ratio                     : 2.35:1
Frame rate                               : 23.976 fps
Color space                              : YUV
Chroma subsampling                       : 4:2:0
Bit depth                                : 8 bits
Scan type                                : Progressive
Compression mode                         : Lossy
Bits/(Pixel*Frame)                       : 0.330
Stream size                              : 1.02 GiB (75%)
Writing library                          : XviD 66

Audio #1
ID                                       : 1
Format                                   : MPEG Audio
Format version                           : Version 1
Format profile                           : Layer 3
Codec ID                                 : 55
Codec ID/Hint                            : MP3
Duration                                 : 1h 24mn
Bit rate mode                            : Constant
Bit rate                                 : 192 Kbps
Channel count                            : 2 channels
Sampling rate                            : 44.1 KHz
Compression mode                         : Lossy
Stream size                              : 115 MiB (8%)
Alignment                                : Aligned on interleaves
Interleave, duration                     : 400 ms (9.60 video frames)
Interleave, preload duration             : 209 ms

Audio #2
ID                                       : 2
Format                                   : AC-3
Format/Info                              : Audio Coding 3
Mode extension                           : CM (complete main)
Format settings, Endianness              : Big
Codec ID                                 : 2000
Duration                                 : 1h 24mn
Bit rate mode                            : Constant
Bit rate                                 : 384 Kbps
Channel count                            : 6 channels
Channel positions                        : Front: L C R, Side: L R, LFE
Sampling rate                            : 48.0 KHz
Bit depth                                : 16 bits
Compression mode                         : Lossy
Stream size                              : 231 MiB (17%)
Alignment                                : Aligned on interleaves
Interleave, duration                     : 64 ms (1.53 video frames)
Interleave, preload duration             : 192 ms


pb.wtf



Скачать Тёмная бухта через торрент http://s018.radikal.ru/i506/1608/56/337132663386.png Скачать фильм Тёмная бухта через торрент бесплантно в хорошем качестве Описание: Пятеро друзей, устав от городской суеты, решают провести время на природе и забираются в один из отдаленных уголков ... 8.1 10 13
Торрент: Зарегистрирован [2016-08-20 06:20] · скачан: 185 раз
Статус: T временная
Размер: 1.36 GB
Как cкачать? Как скачать Тёмная бухта через торрент | qTorrent



Последний раз редактировалось: sanekbest1 (2016-08-20 06:36), всего редактировалось 1 раз


>> Регистрируемся здесь <<






Отзывы и комментарии о схеме читаем и пишем здесь: ---> Отзывы и комментарии о схеме

Новые благодарочки в телеграм довольных пользователей:
скриншот   скриншот   скриншот   скриншот   скриншот

20-08-2016 06:33 Тёмная бухта Скачать торрент  

Аудио#1: Russian: MP3, 192 Kb/s (2 ch), English: AC3, 384 Kb/s (6 ch)

Исправьте на :
Аудио#1: Russian: MP3, 192 Kb/s (2 ch) ? KHz
Аудио#2: English: AC3, 384 Kb/s (6 ch) ? KHz

И на каждую дорожку добавьте частоту в KHzpb.wtf



20-08-2016 06:37 Тёмная бухта Скачать торрент  

ФёдорOFF писал(а):

Аудио#1: Russian: MP3, 192 Kb/s (2 ch), English: AC3, 384 Kb/s (6 ch)

Исправьте на :
Аудио#1: Russian: MP3, 192 Kb/s (2 ch) ? KHz
Аудио#2: English: AC3, 384 Kb/s (6 ch) ? KHz

И на каждую дорожку добавьте частоту в KHz

,Все готово,Сударь)))pb.wtf



20-08-2016 08:33 Тёмная бухта Скачать торрент  

судя по трейлеру говно жуткоеpb.wtf



20-08-2016 10:10 Тёмная бухта Скачать торрент  

страшная тема... pb.wtf



20-08-2016 10:22 Тёмная бухта Скачать торрент  

Фигня!нудный.pb.wtf



20-08-2016 10:39 Тёмная бухта Скачать торрент  

sevast89 писал(а):

Фигня!нудный.

а че ты ожидал за 50 тыр канадских долларов?)) даже в России таких не бывает))pb.wtf



27-08-2016 11:34 Тёмная бухта Скачать торрент  

Все как обычно , предсказуемо ... скучноpb.wtf



    Дорогой пользователь! Огромная просьба, поблагодарите релизера, оцените раздачу и оставьте свои комментарий, если Вы скачали Тёмная бухта через торрент бесплатно! Внесите свою лепту в развитие PiratBit!
    Комментировать посты могут только пользователи прошедшие не сложную регистрацию
    Показать сообщения:    

    Тёмная бухта через торрент
    Скачать бесплатно Тёмная бухта
    Тёмная бухта скачать торрент
    Тёмная бухта смотреть онлайн
    Cкачать фильм Тёмная бухта бесплатно
    Тёмная бухта скачать торрент в хорошем качестве
    Тёмная бухта смотреть онлайн бесплатно в хорошем качестве


    Вы не можете начинать темы
    Вы не можете отвечать на сообщения
    Вы не можете редактировать свои сообщения
    Вы не можете удалять свои сообщения
    Вы не можете голосовать в опросах
    Вы не можете прикреплять файлы к сообщениям
    Вы можете скачивать файлы