Ссылка на приватное зеркало всего за 1$. Внимание количество ограничено!!!

iTunes

iTunes

iTunes

1

iTunes

iTunes

iTunes

iTunes

iTunes

30
pack

$ от Little Big

ВАЖНО

!!Акция!!

Alien_RageХит недели

RePack

Resident Evil 21

ИГРА 18+

pack

RePack

jed

!!Акция!!

Alien_Rage

RePack

fifa19

RePack

Assassins Creed: Odyssey

RePack

NEED FOR SPEED™ PAYBACK

4 сезон

9 сезон

Бесстыжие 9 сезон

Все сериалы

все сериалы на PB.wtf

RePack

FAR CRY 5
  

Проклятие Спящей красавицы / The Curse of Sleeping Beauty (Тео Пирри) [2016, фэнтези, триллер, детектив, WEB-DL 1080p] Дубляж - [Официальный звук] pb.wtf

Проклятие Спящей красавицы через торрент pb.wtf

Размер: 3.06 GB | Добавлен: 3 года 10 мес. назад | Торрент скачан:477 раз
Скачать  

20-08-2016 14:56 Проклятие Спящей красавицы Скачать торрент  

Проклятие Спящей красавицы / The Curse of Sleeping Beauty«The Fairytale Was Only The Beginning...»

  • Год выхода: 2016
  • Жанр: фэнтези, триллер, детектив
  • Страна: США
  • Продолжительность: 01:22:33
  • Перевод: Дубляж - [Официальный звук] Без рекламы
  • Режиссер: Тео Пирри
  • В ролях:

    Итан Пек (Thomas), Индиа Айсли (Sleeping Beauty / Briar Rose), Натали Холл (Linda), Брюс Дэвисон (Richard), Джеймс Лим (Daniel), Скотт Алан Смит (Billings), Зак Уорд (Nathan), Мим Дрю (Braxton), Даллас Харт (Luke), Жаклин Гёнер (Female Clerk), Маделайне Петш (Eliza), Райан Эгнатофф (The Veiled Demon)


  • Томас Кайзер наследует родовое поместье, принадлежащее его семье многие поколения. Но он и не подозревает, что вместе с домом унаследовал и древнее проклятие, что лежит на нём со времён крестовых походов. Томас вынужден примерить на себя роль «хранителя» - того, кто не допустит, чтобы силы зла высвободились из поместья. Разгадать тайну дома ему помогут местный риелтор и священник, а также разбудить прекрасную Брайер Роуз, запертую в ужасном месте, которое Томас видел в своих снах.

  • Качество: WEB-DL 1080p
  • Формат: MKV
  • Видео кодек: AVC
  • Аудио кодек: AC3
  • Видео: AVC, 1920x1080 (16:9), 5120 kbps, 25 fps, 0,099 bpp
  • Аудио: AC3 / 2.0 / 48 kHz / 192 kbps / 16 bit

    General
    Unique ID : 223447432452586590675929513887145118161 (0xA81A68FD577BD9E09C8909DC3C7FC9D1)
    Complete name : E:\Torrent\film\Proklyatie.Spyashej.krasavicy.2O16.D.WEBDL.1080p.mkv
    Format : Matroska
    Format version : Version 4 / Version 2
    File size : 3.06 GiB
    Duration : 1 h 22 min
    Overall bit rate : 5 304 kb/s
    Encoded date : UTC 2016-08-20 04:20:22
    Writing application : mkvmerge v6.8.0 ('Theme for Great Cities') 64bit built on Mar 2 2014 21:34:26
    Writing library : libebml v1.3.0 + libmatroska v1.4.1

    Video
    ID : 1
    Format : AVC
    Format/Info : Advanced Video Codec
    Format profile : High@L4
    Format settings, CABAC : Yes
    Format settings, ReFrames : 4 frames
    Codec ID : V_MPEG4/ISO/AVC
    Duration : 1 h 22 min
    Bit rate : 5 120 kb/s
    Width : 1 920 pixels
    Height : 1 080 pixels
    Display aspect ratio : 16:9
    Frame rate mode : Constant
    Frame rate : 25.000 FPS
    Color space : YUV
    Chroma subsampling : 4:2:0
    Bit depth : 8 bits
    Scan type : Progressive
    Bits/(Pixel*Frame) : 0.099
    Stream size : 2.89 GiB (94%)
    Writing library : x264 core 142
    Encoding settings : cabac=1 / ref=3 / deblock=1:0:0 / analyse=0x3:0x113 / me=hex / subme=7 / psy=1 / psy_rd=1.00:0.00 / mixed_ref=1 / me_range=16 / chroma_me=1 / trellis=1 / 8x8dct=1 / cqm=0 / deadzone=21,11 / fast_pskip=1 / chroma_qp_offset=-2 / threads=48 / lookahead_threads=8 / sliced_threads=0 / nr=0 / decimate=1 / interlaced=0 / bluray_compat=0 / constrained_intra=0 / bframes=6 / b_pyramid=2 / b_adapt=1 / b_bias=0 / direct=1 / weightb=1 / open_gop=0 / weightp=2 / keyint=200 / keyint_min=20 / scenecut=0 / intra_refresh=0 / rc_lookahead=40 / rc=2pass / mbtree=1 / bitrate=5120 / ratetol=1.0 / qcomp=0.60 / qpmin=0 / qpmax=69 / qpstep=4 / cplxblur=20.0 / qblur=0.5 / vbv_maxrate=7680 / vbv_bufsize=20480 / nal_hrd=none / filler=0 / ip_ratio=1.40 / aq=1:1.00
    Language : English
    Default : Yes
    Forced : No

    Audio
    ID : 2
    Format : AC-3
    Format/Info : Audio Coding 3
    Mode extension : CM (complete main)
    Format settings, Endianness : Big
    Codec ID : A_AC3
    Duration : 1 h 22 min
    Bit rate mode : Constant
    Bit rate : 192 kb/s
    Channel(s) : 2 channels
    Channel positions : Front: L R
    Sampling rate : 48.0 kHz
    Frame rate : 31.250 FPS (1536 spf)
    Compression mode : Lossy
    Stream size : 113 MiB (4%)
    Default : Yes
    Forced : No
    Скриншоты:


    © Оформление by -Lexx- pb.wtf



  • Скачать Проклятие Спящей красавицы через торрент http://pic.kartinco.top/images/6/stazu.jpg Скачать фильм Проклятие Спящей красавицы через торрент бесплантно в хорошем качестве qw.png Томас Кайзер наследует родовое поместье, принадлежащее его семье многие поколения. Но он и не подозревает, что вместе с домом ... 9.4 10 15
    Info! Золотая раздача, скачанное не засчитывается.
    Торрент: Зарегистрирован [2016-08-20 14:56] · скачан: 477 раз
    Статус: T временная
    Размер: 3.06 GB
    Как cкачать? Как скачать Проклятие Спящей красавицы через торрент | qTorrent

    % Раздел Тема Автор DL S | L
    T Фильмы 2016 [DVDrip, WEB-DLRip, HDrip] (DUB, MVO) [ 1.35 GB ] Проклятие Спящей красавицы / The Curse of Sleeping Beauty [2016 WEB-DLRip] - [Официальный звук] diletant Скачать
    2 | 0

    28-11-2019 20:33  

    Отключить всю рекламу на сайте

    20-08-2016 17:06 Проклятие Спящей красавицы Скачать торрент  

    Фильм по ходу порожняк)pb.wtf



    20-08-2016 18:58 Проклятие Спящей красавицы Скачать торрент  

    bober100 писал(а):

    Фильм по ходу порожняк)

    по рейтингу похоже..pb.wtf



    20-08-2016 22:12 Проклятие Спящей красавицы Скачать торрент  

    2й скрин: "Спит красавица в гробу, я подкрался и...."pb.wtf



      Дорогой пользователь! Огромная просьба, поблагодарите релизера, оцените раздачу и оставьте свои комментарий, если Вы скачали Проклятие Спящей красавицы через торрент бесплатно! Внесите свою лепту в развитие PiratBit!
      Комментировать посты могут только пользователи прошедшие не сложную регистрацию
      Показать сообщения:    

      Проклятие Спящей красавицы через торрент
      Скачать бесплатно Проклятие Спящей красавицы
      Проклятие Спящей красавицы скачать торрент
      Проклятие Спящей красавицы смотреть онлайн
      Cкачать фильм Проклятие Спящей красавицы бесплатно
      Проклятие Спящей красавицы скачать торрент в хорошем качестве
      Проклятие Спящей красавицы смотреть онлайн бесплатно в хорошем качестве


      Вы не можете начинать темы
      Вы не можете отвечать на сообщения
      Вы не можете редактировать свои сообщения
      Вы не можете удалять свои сообщения
      Вы не можете голосовать в опросах
      Вы не можете прикреплять файлы к сообщениям
      Вы можете скачивать файлы