Ссылка на приватное зеркало нашего сайта всего за 1$. Внимание количество ограничено!!!

2 сезон

iTunes

1 сезон

1

iTunes

iTunes

iTunes

1 сезон

RePack

30

ИГРА 18+

pack

ВАЖНО

!!Акция!!

Alien_RageХит недели

RePack

MK11
pack

Забери бонус

RePack

jed

!!Акция!!

Alien_Rage

RePack

fifa19

RePack

Assassins Creed: Odyssey

RePack

NEED FOR SPEED™ PAYBACK

4 сезон

9 сезон

Бесстыжие 9 сезон

Все сериалы

все сериалы на PB.wtf

RePack

FAR CRY 5
  

Эдди «Орел» / Eddie the Eagle (Джо Джонстон) [2016, драма, комедия, биография, спорт, BDRip 1080p от еnvy / NNNB] DUB, Лицензия pb.wtf

Эдди «Орел» через торрент pb.wtf

Раздают: 18 [ 0 KB/s ]
Размер: 7.74 GB | Добавлен: 4 года 1 мес. назад | Торрент скачан:376 раз
Скачать  

21-08-2016 04:53 Эдди «Орел» Скачать торрент  

Информация о фильме

Русское название: Эдди «Орел»
Оригинальное название: Eddie the Eagle
Год выхода: 2016
Жанр: драма, комедия, биография, спорт
Режиссер: Декстер Флетчер
Выпущено: Великобритания, США, Германия
Продолжительность: 01:45:43
Перевод: Дублированный
В ролях: Тэрон Эджертон, Хью Джекман, Кристофер Уокен, Джо Хартли, Том Костелло, Кит Аллен, Дикон Толсон, Джек Костелло


Сюжет фильма

Фильм повествует о трамплинисте Эдди, по прозвищу «Орел». Он прославился благодаря своим неудачам, ибо на всех соревнованиях он занимал последние места...


Файл

Качество: BDRip 1080p (исходник Blu-ray Disc)
Формат: MKV
Видео: 1920x804, 9416 Кбит/сек, 23,976 кадр/сек, AVC, x264, High@L4.1, 2.40:1, 0.254 Бит/[Пиксели*Кадры]
Аудио 1: AC-3, 448 Кбит/сек, 6 канала(ов), 48,0 КГц - Дублированный / Русский
Аудио 2: AC-3, 640 Кбит/сек, 6 канала(ов), 48,0 КГц - Оригинал / Английский
Субтитры: Русские | Полные, Английские | Полные
Форсированные субтитры: Русские
Чаптеры (Главы): Есть






Автор Рипа: Группа:


Код:

Format                      : Matroska
Format version              : Version 2
File size                   : 7.74 GiB
Duration                    : 1h 45mn
Overall bit rate            : 10.5 Mbps
Movie name                  : Eddie the Eagle.(2016).BDRip.1080p.[envy]
Encoded date                : UTC 2016-08-21 04:29:54
Writing application         : mkvmerge v5.8.0 ('No Sleep / Pillow') built on Sep  2 2012 15:37:04
Writing library             : libebml v1.2.3 + libmatroska v1.3.0

Video
ID                          : 1
Format                      : AVC
Format/Info                 : Advanced Video Codec
Format profile              : High@L4.1
Format settings, CABAC      : Yes
Format settings, ReFrames   : 5 frames
Codec ID                    : V_MPEG4/ISO/AVC
Duration                    : 1h 45mn
Bit rate                    : 9 416 Kbps
Width                       : 1 920 pixels
Height                      : 804 pixels
Display aspect ratio        : 2.40:1
Frame rate mode             : Constant
Frame rate                  : 23.976 (24000/1001) fps
Color space                 : YUV
Chroma subsampling          : 4:2:0
Bit depth                   : 8 bits
Scan type                   : Progressive
Bits/(Pixel*Frame)          : 0.254
Stream size                 : 6.79 GiB (88%)
Title                       : Eddie the Eagle.(2016).BDRip.1080p.[envy]
Writing library             : x264 core 148 r2705 3f5ed56
Encoding settings           : cabac=1 / ref=5 / deblock=1:-3:-3 / analyse=0x3:0x113 / me=umh / subme=11 / psy=1 / psy_rd=1.00:0.00 / mixed_ref=1 / me_range=48 / chroma_me=1 / trellis=2 / 8x8dct=1 / cqm=0 / deadzone=21,11 / fast_pskip=0 / chroma_qp_offset=-2 / threads=12 / lookahead_threads=2 / sliced_threads=0 / nr=0 / decimate=1 / interlaced=0 / bluray_compat=0 / constrained_intra=0 / bframes=8 / b_pyramid=2 / b_adapt=2 / b_bias=0 / direct=3 / weightb=1 / open_gop=0 / weightp=2 / keyint=240 / keyint_min=23 / scenecut=40 / intra_refresh=0 / rc=2pass / mbtree=0 / bitrate=9416 / ratetol=2.0 / qcomp=0.60 / qpmin=0 / qpmax=69 / qpstep=4 / cplxblur=20.0 / qblur=0.5 / ip_ratio=1.40 / pb_ratio=1.30 / aq=2:0.70
Language                    : English
Default                     : Yes
Forced                      : No

Audio #1
ID                          : 2
Format                      : AC-3
Format/Info                 : Audio Coding 3
Mode extension              : CM (complete main)
Format settings, Endianness : Big
Codec ID                    : A_AC3
Duration                    : 1h 45mn
Bit rate mode               : Constant
Bit rate                    : 448 Kbps
Channel(s)                  : 6 channels
Channel positions           : Front: L C R, Side: L R, LFE
Sampling rate               : 48.0 KHz
Frame rate                  : 31.250 fps (1536 spf)
Compression mode            : Lossy
Stream size                 : 339 MiB (4%)
Title                       : Dub
Language                    : Russian
Default                     : Yes
Forced                      : No

Audio #2
ID                          : 3
Format                      : AC-3
Format/Info                 : Audio Coding 3
Mode extension              : CM (complete main)
Format settings, Endianness : Big
Codec ID                    : A_AC3
Duration                    : 1h 45mn
Bit rate mode               : Constant
Bit rate                    : 640 Kbps
Channel(s)                  : 6 channels
Channel positions           : Front: L C R, Side: L R, LFE
Sampling rate               : 48.0 KHz
Frame rate                  : 31.250 fps (1536 spf)
Compression mode            : Lossy
Stream size                 : 484 MiB (6%)
Title                       : Eng
Language                    : English
Default                     : No
Forced                      : No

Text #1
ID                          : 4
Format                      : UTF-8
Codec ID                    : S_TEXT/UTF8
Codec ID/Info               : UTF-8 Plain Text
Title                       : Rus forced
Language                    : Russian
Default                     : Yes
Forced                      : Yes

Text #2
ID                          : 5
Format                      : UTF-8
Codec ID                    : S_TEXT/UTF8
Codec ID/Info               : UTF-8 Plain Text
Title                       : Rus full
Language                    : Russian
Default                     : No
Forced                      : No

Text #3
ID                          : 6
Format                      : UTF-8
Codec ID                    : S_TEXT/UTF8
Codec ID/Info               : UTF-8 Plain Text
Title                       : Eng full
Language                    : English
Default                     : No
Forced                      : No

Menu
00:00:00.000                : :00:00:00.000
00:03:33.171                : :00:03:33.171
00:08:15.161                : :00:08:15.161
00:12:06.684                : :00:12:06.684
00:17:54.573                : :00:17:54.573
00:21:31.081                : :00:21:31.081
00:26:19.578                : :00:26:19.578
00:31:41.566                : :00:31:41.566
00:37:13.273                : :00:37:13.273
00:41:46.963                : :00:41:46.963
00:47:12.329                : :00:47:12.329
00:50:19.350                : :00:50:19.350
00:53:39.591                : :00:53:39.591
00:56:57.581                : :00:56:57.581
01:02:22.906                : :01:02:22.906
01:08:16.884                : :01:08:16.884
01:11:42.298                : :01:11:42.298
01:17:05.788                : :01:17:05.788
01:20:00.587                : :01:20:00.587
01:23:23.457                : :01:23:23.457
01:27:44.593                : :01:27:44.593
01:31:40.120                : :01:31:40.120
01:36:53.057                : :01:36:53.057
01:40:42.078                : :01:40:42.078


pb.wtf



Скачать Эдди «Орел» через торрент http://img10.lostpic.net/2016/08/21/356aff3ae8be332c2d6234d912e9f1a1.png Скачать фильм Эдди «Орел» через торрент бесплантно в хорошем качестве В ролях: Тэрон Эджертон, Хью Джекман, Кристофер Уокен, Джо Хартли, Том Костелло, Кит Аллен, Дикон Толсон, Джек КостеллоСюжет фильмаФильм ... 10 10 7
Info! Золотая раздача, скачанное не засчитывается.
Торрент: Зарегистрирован [2016-08-21 04:53] · скачан: 376 раз
Статус: √ проверено
Размер: 7.74 GB
Как cкачать? Как скачать Эдди «Орел» через торрент | qTorrent

% Раздел Тема Автор DL S | L
Фильмы 2016 [DVDrip, WEB-DLRip, HDrip] (DUB, MVO) [ 745 MB ] Эдди «Орел» / Eddie the Eagle [2016 биография HDRip] DUB [ BD CEE] bober100 Скачать
2 | 0
Фильмы (HD 720p, 1080p) (48-60 fps) [ 3.42 GB ] Эдди «Орел» / Eddie the Eagle [2016 биография BDRip 720p 60 fps от еnvy / NNNB] DUB еnvy Скачать
4 | 0
Фильмы 2016 [DVDrip, WEB-DLRip, HDrip] (DUB, MVO) [ 746 MB ] Эдди «Орел» / Eddie the Eagle [2016 Германия биография BDRip-AVC от sokol_ok] DUB sokol_ok Скачать
2 | 0
Фильмы 2016 [DVDrip, WEB-DLRip, HDrip] (DUB, MVO) [ 2.18 GB ] Эдди «Орел» / Eddie the Eagle [2016 Германия биография BDRip-AVC от sokol_ok] DUB [] sokol_ok Скачать
2 | 0
Фильмы 2016 [DVDrip, WEB-DLRip, HDrip] (DUB, MVO) [ 1.46 GB ] Эдди «Орел» / Eddie the Eagle [2016 биография BDRip] DUB Twi7ter Скачать
1 | 0
Фильмы 2016 [DVDrip, WEB-DLRip, HDrip] (DUB, MVO) [ 1.46 GB ] Эдди «Орел» / Eddie the Eagle [2016 Германия биография BDRip-AVC от sokol_ok] DUB sokol_ok Скачать
2 | 0

28-11-2019 20:33  

Отключить всю рекламу на сайте

21-08-2016 04:55 Эдди «Орел» Скачать торрент  

x264 [info]: frame I:1264 Avg QP:11.69 size:281256
x264 [info]: frame P:36540 Avg QP:14.07 size: 95273
x264 [info]: frame B:114286 Avg QP:16.02 size: 31622pb.wtf



21-08-2016 07:05 Эдди «Орел» Скачать торрент  

Очень хорошее кино)pb.wtf



21-08-2016 07:30 Эдди «Орел» Скачать торрент  

в чем-то не типичная спортивная драма. к тому же добрый и хороший фильм. настроение поднимает на ура pb.wtf



    Дорогой пользователь! Огромная просьба, поблагодарите релизера, оцените раздачу и оставьте свои комментарий, если Вы скачали Эдди «Орел» через торрент бесплатно! Внесите свою лепту в развитие PiratBit!
    Комментировать посты могут только пользователи прошедшие не сложную регистрацию
    Показать сообщения:    

    Эдди «Орел» через торрент
    Скачать бесплатно Эдди «Орел»
    Эдди «Орел» скачать торрент
    Эдди «Орел» смотреть онлайн
    Cкачать фильм Эдди «Орел» бесплатно
    Эдди «Орел» скачать торрент в хорошем качестве
    Эдди «Орел» смотреть онлайн бесплатно в хорошем качестве


    Вы не можете начинать темы
    Вы не можете отвечать на сообщения
    Вы не можете редактировать свои сообщения
    Вы не можете удалять свои сообщения
    Вы не можете голосовать в опросах
    Вы не можете прикреплять файлы к сообщениям
    Вы можете скачивать файлы