Ссылка на приватное зеркало всего за 1$. Внимание количество ограничено!!!

iTunes

1+1

iTunes

мы

WEB-DL

1

iTunes

Чернобыль

iTunes

Ральф против интернета

Лицензия

ПШазам

Лицензия

Оно 2

Лицензия

30
pack

Вам бонус

ВАЖНО

!!Акция!!

Alien_RageХит недели

RePack

Resident Evil 21

ИГРА 18+

pack

RePack

jed

!!Акция!!

Alien_Rage

RePack

fifa19

RePack

Assassins Creed: Odyssey

RePack

NEED FOR SPEED™ PAYBACK

3 сезон

9 сезон

Бесстыжие 9 сезон

Все сериалы

все сериалы на PB.wtf

RePack

FAR CRY 5
Ребята, катастрофически не хватает 1900р. для оплаты серверов за Октябрь (всвязи с блокировками трафик упал в 3 раза), 1-2р., выручайте.
  

Долгое прощание / The Long Goodbye (Роберт Олтмен) [1973 г., триллер, драма, криминал, детектив, BDRip] DVO, MVO pb.wtf

Долгое прощание через торрент pb.wtf

Размер: 2.18 GB | Добавлен: 3 года 3 мес. назад | Торрент скачан:13 раз
Скачать  

21-08-2016 16:12 Долгое прощание Скачать торрент  

Долгое прощание / The Long Goodbye
Год выпуска: 1973
Страна: США
Жанр: триллер, драма, криминал, детектив
Продолжительность: 01:52:11
Перевод: Профессиональный (многоголосый), профессиональный двухголосый

Режиссер: Роберт Олтмен
Продюссер: Джерри Бик, Роберт Эггенвейлер, Эллиотт Кастнер
Сценарий: Ли Брэкетт, Раймонд Чандлер

Бюджет: $959 000
Премьера в мире: 7 марта 1973



В ролях: Эллиотт Гулд, Нина Ван Палландт, Стерлинг Хейден, Марк Райделл, Генри Гибсон, Джим Бутон, Дэвид Аркин, Уоррен Берлингер, Джо Энн Броди, Арнольд Шварценеггер, Дэвид Кэрредин

Описание: От частного детектива Филипа Марлоу ушла кошка. В ту же ночь к Филипу явился Терри Леннокс, старый друг, и попросил подбросить его до Тихуаны. На следующий день жену Терри нашли мертвой, а Марлоу посетили копы.

Качество: BDRip
Формат: AVI
Видео кодек: XviD
Аудио кодек: AC3
Видео: XviD, 1932 Кбит/с, 704х304, 23.976 кадр/с
Аудио#1: АС3, 2 ch, 192 Кбит/c, 48 kHz | Профессиональный двухголосый (НТВ+)
Аудио#2: АС3, 2 ch, 192 Кбит/c, 48 kHz | Профессиональный многоголосый (Селена Интернешнл по заказу ОРТ)
Аудио#3: АС3, 1 ch, 448 Кбит/c, 48 kHz | Английский
Релиз от: Koenig
Общее
Полное имя : The.Long.Goodbye.1973.BDRip.avi
Формат : AVI
Формат/Информация : Audio Video Interleave
Профиль формата : OpenDML
Размер файла : 2,18 Гбайт
Продолжительность : 1 ч. 52 м.
Общий поток : 2788 Кбит/сек
Программа кодирования : VirtualDubMod 1.5.10.2 (build 2540/release)
Библиотека кодирования : VirtualDubMod build 2540/release

Видео
Идентификатор : 0
Формат : MPEG-4 Visual
Профиль формата : Advanced Simple@L5
Параметр BVOP формата : 1
Параметр QPel формата : Нет
Параметр GMC формата : Без точки перехода
Параметр матрицы формата : Default (MPEG)
Идентификатор кодека : XVID
Идентификатор кодека/Подсказка : XviD
Продолжительность : 1 ч. 52 м.
Битрейт : 1932 Кбит/сек
Ширина : 704 пикселя
Высота : 304 пикселя
Соотношение сторон : 2,35:1
Частота кадров : 23,976 (23976/1000) кадра/сек
Цветовое пространство : YUV
Субдискретизация насыщенности : 4:2:0
Битовая глубина : 8 бит
Тип развёртки : Прогрессивная
Метод сжатия : С потерями
Бит/(Пиксели*Кадры) : 0.376
Размер потока : 1,51 Гбайт (69%)
Библиотека кодирования : XviD 1.2.0.dev47 (UTC 2006-11-01)

Аудио #1
Идентификатор : 1
Формат : AC-3
Формат/Информация : Audio Coding 3
Расширение режима : CM (complete main)
Параметр Endianness формата : Big
Идентификатор кодека : 2000
Продолжительность : 1 ч. 52 м.
Вид битрейта : Постоянный
Битрейт : 192 Кбит/сек
Каналы : 2 канала
Расположение каналов : Front: L R
Частота : 48,0 КГц
Частота кадров : 31,250 кадров/сек (1536 spf)
Метод сжатия : С потерями
Размер потока : 154 Мбайт (7%)
Выравнивание : Разделение по промежуткам
Продолжительность промежутка : 42 мс. (1,00 видеокадр)
Время предзагрузки промежутка : 500 мс.

Аудио #2
Идентификатор : 2
Формат : AC-3
Формат/Информация : Audio Coding 3
Расширение режима : CM (complete main)
Параметр Endianness формата : Big
Идентификатор кодека : 2000
Продолжительность : 1 ч. 52 м.
Вид битрейта : Постоянный
Битрейт : 192 Кбит/сек
Каналы : 2 канала
Расположение каналов : Front: L R
Частота : 48,0 КГц
Частота кадров : 31,250 кадров/сек (1536 spf)
Метод сжатия : С потерями
Размер потока : 154 Мбайт (7%)
Выравнивание : Разделение по промежуткам
Продолжительность промежутка : 42 мс. (1,00 видеокадр)
Время предзагрузки промежутка : 500 мс.

Аудио #3
Идентификатор : 3
Формат : AC-3
Формат/Информация : Audio Coding 3
Расширение режима : CM (complete main)
Параметр Endianness формата : Big
Идентификатор кодека : 2000
Продолжительность : 1 ч. 52 м.
Вид битрейта : Постоянный
Битрейт : 448 Кбит/сек
Каналы : 1 канал
Расположение каналов : Front: C
Частота : 48,0 КГц
Частота кадров : 31,250 кадров/сек (1536 spf)
Метод сжатия : С потерями
Размер потока : 359 Мбайт (16%)
Выравнивание : Разделение по промежуткам
Продолжительность промежутка : 42 мс. (1,00 видеокадр)
Время предзагрузки промежутка : 500 мс.

pb.wtf



Скачать Долгое прощание через торрент http://funkyimg.com/i/2fGoN.jpg Скачать фильм Долгое прощание через торрент бесплантно в хорошем качестве Описание: От частного детектива Филипа Марлоу ушла кошка. В ту же ночь к Филипу явился Терри Леннокс, старый друг, и попросил подбросить ... 10 10 3
Info! Золотая раздача, скачанное не засчитывается.
Торрент: Зарегистрирован [2016-08-21 16:12] · скачан: 13 раз
Статус: √ проверено
Размер: 2.18 GB
Как cкачать? Как скачать Долгое прощание через торрент | qTorrent

28-11-2019 20:33  

Отключить всю рекламу на сайте

21-08-2016 19:42 Долгое прощание Скачать торрент  

Старый классный фильм)pb.wtf



    Дорогой пользователь! Огромная просьба, поблагодарите релизера, оцените раздачу и оставьте свои комментарий, если Вы скачали Долгое прощание через торрент бесплатно! Внесите свою лепту в развитие PiratBit!
    Комментировать посты могут только пользователи прошедшие не сложную регистрацию
    Показать сообщения:    

    Долгое прощание через торрент
    Скачать бесплатно Долгое прощание
    Долгое прощание скачать торрент
    Долгое прощание смотреть онлайн
    Cкачать фильм Долгое прощание бесплатно
    Долгое прощание скачать торрент в хорошем качестве
    Долгое прощание смотреть онлайн бесплатно в хорошем качестве


    Вы не можете начинать темы
    Вы не можете отвечать на сообщения
    Вы не можете редактировать свои сообщения
    Вы не можете удалять свои сообщения
    Вы не можете голосовать в опросах
    Вы не можете прикреплять файлы к сообщениям
    Вы можете скачивать файлы