Всегда рабочее зеркало без VPN и Proxy просто перед .vidak.icu напиши любое слово или цифру, Пример http://2nnw.vidak.icu

iTunes

2 сезон

1 сезон

1

1 сезон

iTunes

2 сезон

13

1 сезон

Deluxe

pack

Рекомендуем

Пиратка

30

ВАЖНО

RePack

MK11

RePack

jed

RePack

fifa19

RePack

RDR2

RePack

NEED FOR SPEED™ PAYBACK

Кинопоиск HD

6 сезон

 Острые козырьки 6 сезон

Все сериалы

все сериалы на PB.wtf

RePack

FAR CRY 5

Anonymous, нам критически не хватает 5601 руб. на оплату серверов и переферии за Апрель, помоги нам пожалуйста, вся надежда только на тебя. В благодарность мы отключим тебе всю рекламу на сайте!

×
  
Magnet ссылка

Синг Стрит / Sing Street (Джон Карни ) [2016, драма, мелодрама, комедия, BD Remux [Оригинал] pb.wtf

Синг Стрит через торрент pb.wtf

Размер: 22.21 GB | Добавлен: 5 лет 9 мес. назад | Торрент скачан:4 раза
Смотреть онлайн Синг Стрит | Скачать    Ребята, помогите собрать деньги на оплату серверов!!!

23-08-2016 04:11 Синг Стрит Скачать торрент  

Синг Стрит / Sing Street

Год выпуска: 2016
Страна: Ирландия, Великобритания, США
Жанр: драма, мелодрама, комедия, музыка

Продолжительность: 01:45:24
Перевод: Перевод отсутствует [Оригинал]
Субтитры: английский, испанский
Режиссер: Джон Карни
В ролях: Фердия Уолш-Пило (Conor), Эйдан Гиллен (Robert Lalor), Мария Дойл Кеннеди (Penny), Джек Рейнор (Brendan), Келли Торнтон (Ann), Йен Кенни (Barry), Бен Керолан (Darren), Перси Чамбурука (Ngig), Марк МакКенна (Eamon), Дон Вичерли (Brother Baxter), Дес Кеог (Brother Barnabas), Киан Мерфи (Mick Mahon)
Описание:
Ностальгическая музыкальная драма о взрослении. Когда экономический кризис 1980-х ударяет по семье Конора, его переводят из престижной частной школы в государственную. Подросток сталкивается с грубостью и невежеством новой среды и, кроме того, влюбляется в недосягаемую красавицу. Желая впечатлить девушку, Конор собирает рок-группу.
Рейтинг:

MPAA: PG-13 - Детям до 13 лет просмотр не желателен
Качество: BD Remux
Формат: MKV
Видео: AVC, 1920x1080 (16:9), 26170 kbps, 23,976 fps, 0,526 bpp
Аудио: английский / DTS-HD / 5.1 / 48 kHz / 3840 kbps / 24 bit (Core: 5.1 / 48 kHz / 1509 kbps / 24 bit)
Навигация по главам: есть

General
Unique ID Sing.Street.2016.BluRay.1080p.DTS-HD.MA.5.1.AVC.REMUX-FraMeSToR\Sing.Street.2016.BluRay.1080p.DTS-HD.MA.5.1.AVC.REMUX-FraMeSToR.mkv
Format : Matroska
Format version : Version 4 / Version 2
File size : 22.2 GiB
Duration : 1 h 45 min
Overall bit rate mode : Variable
Overall bit rate : 30.2 Mb/s
Movie name : Sing Street
Encoded date : UTC 2016-07-07 09:42:45
Writing application : mkvmerge v9.2.0 ('Photograph') 64bit
Writing library : libebml v1.3.3 + libmatroska v1.4.4

Video
ID : 1
Format : AVC
Format/Info : Advanced Video Codec
Format profile : High@L4.1
Format settings, CABAC : Yes
Format settings, ReFrames : 4 frames
Format settings, GOP : M=3, N=24
Codec ID : V_MPEG4/ISO/AVC
Duration : 1 h 45 min
Bit rate mode : Variable
Bit rate : 26.2 Mb/s
Maximum bit rate : 35.0 Mb/s
Width : 1 920 pixels
Height : 1 080 pixels
Display aspect ratio : 16:9
Frame rate mode : Constant
Frame rate : 23.976 (24000/1001) FPS
Standard : NTSC
Color space : YUV
Chroma subsampling : 4:2:0
Bit depth : 8 bits
Scan type : Progressive
Bits/(Pixel*Frame) : 0.526
Stream size : 19.3 GiB (87%)
Default : Yes
Forced : No
Color range : Limited
Color primaries : BT.709
Transfer characteristics : BT.709
Matrix coefficients : BT.709

Audio
ID : 2
Format : DTS
Format/Info : Digital Theater Systems
Format profile : MA / Core
Mode : 16
Format settings, Endianness : Big
Codec ID : A_DTS
Duration : 1 h 45 min
Bit rate mode : Variable / Constant
Bit rate : 3 840 kb/s / 1 509 kb/s
Channel(s) : 6 channels
Channel positions : Front: L C R, Side: L R, LFE
Sampling rate : 48.0 kHz
Frame rate : 93.750 FPS (512 spf)
Bit depth : 24 bits
Compression mode : Lossless / Lossy
Stream size : 2.87 GiB (13%)
Title : DTS-HD MA 5.1
Language : English
Default : Yes
Forced : No

Text #1
ID : 3
Format : PGS
Codec ID : S_HDMV/PGS
Codec ID/Info : Picture based subtitle format used on BDs/HD-DVDs
Duration : 1 h 44 min
Bit rate : 47.5 kb/s
Count of elements : 4184
Stream size : 35.4 MiB (0%)
Title : English (SDH)
Language : English
Default : Yes
Forced : No

Text #2
ID : 4
Format : PGS
Codec ID : S_HDMV/PGS
Codec ID/Info : Picture based subtitle format used on BDs/HD-DVDs
Duration : 1 h 40 min
Bit rate : 41.1 kb/s
Count of elements : 3146
Stream size : 29.4 MiB (0%)
Title : Spanish (Latin American)
Language : Spanish
Default : No
Forced : No

Menu
00:00:00.000 : en:Chapter 1
00:05:00.967 : en:Chapter 2
00:09:40.746 : en:Chapter 3
00:14:58.314 : en:Chapter 4
00:20:49.706 : en:Chapter 5
00:26:50.775 : en:Chapter 6
00:32:27.278 : en:Chapter 7
00:36:50.583 : en:Chapter 8
00:43:37.781 : en:Chapter 9
00:49:09.321 : en:Chapter 10
00:55:03.049 : en:Chapter 11
01:00:29.459 : en:Chapter 12
01:04:38.624 : en:Chapter 13
01:08:57.508 : en:Chapter 14
01:14:55.782 : en:Chapter 15
01:20:44.005 : en:Chapter 16
01:27:05.553 : en:Chapter 17
01:31:35.907 : en:Chapter 18
01:36:47.009 : en:Chapter 19
01:41:17.154 : en:Chapter 20
pb.wtf



Скачать Синг Стрит через торрент http://i1.imageban.ru/out/2016/08/23/798113bb9e35bcfc6dce55a36cb6b793.jpg Скачать, смотреть онлайн Синг Стрит бесплантно в хорошем качестве Описание: Ностальгическая музыкальная драма о взрослении. Когда экономический кризис 1980-х ударяет по семье Конора, его переводят из ... 10 10 2
Торрент: Зарегистрирован [2016-08-23 04:11] · скачан: 4 раз
Статус: √ проверено
Размер: 22.21 GB
Как cкачать? Как скачать Синг Стрит через торрент | UTorrent

% Раздел Тема Автор DL S | L
Фильмы с авторской озвучкой [ 1.46 GB ] Синг Стрит / Sing Street [2016 музыкальный BDRip] [AVO] killermax2013 Скачать
1 | 0
Фильмы с авторской озвучкой [ 12.44 GB ] Синг Стрит / Sing Street [2016 музыкальный BDRip 1080p] [AVO] killermax2013 Скачать
1 | 0
T Фильмы 2016 [DVDrip, WEB-DLRip, HDrip] (DUB, MVO) [ 1.46 GB ] Синг Стрит / Sing Street [2016 Мело Музыкальный HDRip Любительский [СПД]] DJASFUL Скачать
1 | 1

28-11-2019 20:33  

Отключить всю рекламу на сайте

23-08-2016 08:08 Синг Стрит Скачать торрент  

Это кто то смотрел?pb.wtf



    Дорогой пользователь! Огромная просьба, поблагодарите релизера, оцените раздачу и оставьте свои комментарий, если Вы скачали Синг Стрит через торрент бесплатно!
    Комментировать посты могут только пользователи прошедшие не сложную регистрацию
    Показать сообщения:    

    Синг Стрит через торрент
    Скачать бесплатно Синг Стрит
    Синг Стрит скачать торрент
    Синг Стрит смотреть онлайн
    Cкачать фильм Синг Стрит бесплатно
    Синг Стрит скачать торрент в хорошем качестве
    Синг Стрит смотреть онлайн бесплатно в хорошем качестве


    Вы не можете начинать темы
    Вы не можете отвечать на сообщения
    Вы не можете редактировать свои сообщения
    Вы не можете удалять свои сообщения
    Вы не можете голосовать в опросах
    Вы не можете прикреплять файлы к сообщениям
    Вы можете скачивать файлы