новый адрес пиратбит piratbit
Мега распродажа FORZA HORIZON 4 ULTIMATE+ВСЕ DLC+ОНЛАЙН всего за 499р. 349 руб. (супер цена). Внимание количество ограничено!!!

iTunes

1+1

iTunes

мы

iTunes

1

iTunes

Чернобыль

iTunes

Ральф против интернета

Лицензия

ПШазам

Лицензия

Игра престолов

Лицензия

30
pack

ВАЖНО

!!Акция!!

Alien_RageХит недели

RePack

Resident Evil 21

ИГРА 18+

pack

RePack

Metro:Exodus

!!Акция!!

Alien_Rage

RePack

fifa19

RePack

Assassins Creed: Odyssey

RePack

NEED FOR SPEED™ PAYBACK

3 сезон

9 сезон

Бесстыжие 9 сезон

Все сериалы

все сериалы на PB.wtf

RePack

FAR CRY 5
Ребята, катастрофически не хватает 1900р. для оплаты серверов за Октябрь (всвязи с блокировками трафик упал в 3 раза), 1-2р., выручайте.
  

Друг мой, Колька!.. (Александр Митта, Алексей Салтыков) [1961 г., киноповесть, школьный, DVDRip] pb.wtf

Друг мой, Колька!.. через торрент pb.wtf

Размер: 1.37 GB | Добавлен: 3 года 2 мес. назад | Торрент скачан:27 раз
Скачать  

23-08-2016 10:54 Друг мой, Колька!.. Скачать торрент  


Друг мой, Колька!..
Год выпуска: 1961
Страна: СССР
Жанр: киноповесть, школьный
Продолжительность: 01:22:49
Субтитры: Отсутствуют

Режиссер: Александр Митта, Алексей Салтыков
Сценарий: Александр Хмелик, Сергей Ермолинский

Премьера в мире: 13 мая 1961

для любой зрительской аудитории
http://www.imdb.com/title/tt0054828/



В ролях: Александр Кобозев, Анна Родионова, Алексей Борзунов, Виктор Онучак, Татьяна Кузнецова, Анатолий Кузнецов, Антонина Дмитриева, Виталий Ованесов, Савелий Крамаров, Борис Новиков, Людмила Чернышёва, Игорь Косухин, Светлана Харитонова, Юрий Никулин, Евгений Тетерин, Анатолий Елисеев, Татьяна Ухарова, Олег Видов, Иван Косых, Александр Лебедев, Борис Битюков, Александра Данилова, Николай Смирнов, Валерий Рыжаков

Описание: Кольке Снегиреву скучно в школе. Остальным ребятам - тоже. Работа пионерской организации погрязла в однообразной рутине. Старшей пионервожатой работает Лидия Михайловна, внешне все благополучно. Но за аккуратно составленными планами скрывается формализм, равнодушие и скука. Самой пионервожатой работа надоела, детей она не любит, вокруг нее крутятся только карьеристы и подлизы, будущие комсомольские работники. Автобаза направляет в эту подшефную школу в качестве отрядного пионервожатого своего шофера, парня простого, умного и честного. Ему сразу становится понятно, почему Снегирев и другие школьники организовали подпольную организацию "ТОТР" - "Тайное Общество Троечников". Их цель: "Помогать обиженным и слабым, мстить зубрилам и выскочкам". Узнав об этом, старшая пионервожатая начинает "расследование"...

Доп. информация: Дипломная работа. По одноименной пьесе Александра Хмелика. Прокат (1961, 19 место) - 23.8 млн. зрителей. Вторая более-менее заметная роль в кино Савелия Крамарова

Качество: DVDRip
Формат: AVI
Видео кодек: XviD
Аудио кодек: AC3
Видео: 720x544 (1.32:1), 25 fps, DivX Codec 5.2.1, 1909 kbps avg, 0.20 bit/pixel
Аудио#1: 48 kHz, AC3 Dolby Digital, 3/2 (L,C,R,l,r) + LFE ch, 448.00 kbps avg
скриншот  скриншот  скриншот  скриншот  скриншот  скриншот  

General
Complete name : E:\Drug moj Kol`ka.avi
Format : AVI
Format/Info : Audio Video Interleave
File size : 1.37 GiB
Duration : 1h 22mn
Overall bit rate : 2 364 Kbps
Writing application : VirtualDubMod 1.5.4.1 (build 2178/release)
Writing library : VirtualDubMod build 2178/release

Video
ID : 0
Format : MPEG-4 Visual
Format settings, BVOP : 1
Format settings, QPel : No
Format settings, GMC : No warppoints
Format settings, Matrix : Default (H.263)
Muxing mode : Packed bitstream
Codec ID : DX50
Codec ID/Hint : DivX 5
Duration : 1h 22mn
Bit rate : 1 909 Kbps
Width : 720 pixels
Height : 544 pixels
Display aspect ratio : 4:3
Frame rate : 25.000 fps
Color space : YUV
Chroma subsampling : 4:2:0
Bit depth : 8 bits
Scan type : Progressive
Compression mode : Lossy
Bits/(Pixel*Frame) : 0.195
Stream size : 1.10 GiB (81%)
Writing library : DivX 5.2.1 (WaffleDay) (UTC 2004-09-08)

Audio
ID : 1
Format : AC-3
Format/Info : Audio Coding 3
Mode extension : CM (complete main)
Format settings, Endianness : Big
Codec ID : 2000
Duration : 1h 22mn
Bit rate mode : Constant
Bit rate : 448 Kbps
Channel count : 6 channels
Channel positions : Front: L C R, Side: L R, LFE
Sampling rate : 48.0 KHz
Bit depth : 16 bits
Compression mode : Lossy
Delay relative to video : 509ms
Stream size : 265 MiB (19%)
Alignment : Split accross interleaves
Interleave, duration : 96 ms (2.40 video frames)
Interleave, preload duration : 96 ms

pb.wtf



Скачать Друг мой, Колька!.. через торрент http://pic1.kartinco.top/images/10/fgvl3.jpg Скачать фильм Друг мой, Колька!.. через торрент бесплантно в хорошем качестве Описание: Кольке Снегиреву скучно в школе. Остальным ребятам - тоже. Работа пионерской организации погрязла в однообразной рутине. Старшей ... 7.7 10 7
Info! Золотая раздача, скачанное не засчитывается.
Торрент: Зарегистрирован [2016-08-23 10:54] · скачан: 27 раз
Статус: √ проверено
Размер: 1.37 GB
Как cкачать? Как скачать Друг мой, Колька!.. через торрент | qTorrent

% Раздел Тема Автор DL S | L
Кино СССР [ 1.09 GB ] Друг мой Колька!.. [1961 СССР DVDRip-AVC от AVP Studio] AVP Studio Скачать
1 | 0
Кино СССР [ 1.09 GB ] Друг мой Колька!.. [1961 СССР DVDRip от AVP Studio] AVP Studio Скачать
1 | 0


>> Регистрируемся здесь <<






Отзывы и комментарии о схеме читаем и пишем здесь: ---> Отзывы и комментарии о схеме

Новые благодарочки в телеграм довольных пользователей:
скриншот   скриншот   скриншот   скриншот   скриншот

23-08-2016 14:00 Друг мой, Колька!.. Скачать торрент  

Отличный советский фильмpb.wtf



    Дорогой пользователь! Огромная просьба, поблагодарите релизера, оцените раздачу и оставьте свои комментарий, если Вы скачали Друг мой, Колька!.. через торрент бесплатно! Внесите свою лепту в развитие PiratBit!
    Комментировать посты могут только пользователи прошедшие не сложную регистрацию
    Показать сообщения:    

    Друг мой, Колька!.. через торрент
    Скачать бесплатно Друг мой, Колька!..
    Друг мой, Колька!.. скачать торрент
    Друг мой, Колька!.. смотреть онлайн
    Cкачать фильм Друг мой, Колька!.. бесплатно
    Друг мой, Колька!.. скачать торрент в хорошем качестве
    Друг мой, Колька!.. смотреть онлайн бесплатно в хорошем качестве


    Вы не можете начинать темы
    Вы не можете отвечать на сообщения
    Вы не можете редактировать свои сообщения
    Вы не можете удалять свои сообщения
    Вы не можете голосовать в опросах
    Вы не можете прикреплять файлы к сообщениям
    Вы можете скачивать файлы