новый адрес
Ссылка на приватное зеркало всего за 1$. Внимание количество ограничено!!!

iTunes

1+1

iTunes

мы

WEB-DL

1

iTunes

Чернобыль

iTunes

Ральф против интернета

Лицензия

ПШазам

Лицензия

Оно 2

Лицензия

30
pack

Вам бонус

ВАЖНО

!!Акция!!

Alien_RageХит недели

RePack

Resident Evil 21

ИГРА 18+

pack

RePack

jed

!!Акция!!

Alien_Rage

RePack

fifa19

RePack

Assassins Creed: Odyssey

RePack

NEED FOR SPEED™ PAYBACK

3 сезон

9 сезон

Бесстыжие 9 сезон

Все сериалы

все сериалы на PB.wtf

RePack

FAR CRY 5
Ребята, катастрофически не хватает 1900р. для оплаты серверов за Октябрь (всвязи с блокировками трафик упал в 3 раза), 1-2р., выручайте.
  

Великий Гэтсби / The Great Gatsby (Джек Клэйтон) [1974 г., драма, мелодрама, HDRip] MVO pb.wtf

Великий Гэтсби через торрент pb.wtf

Размер: 1.45 GB | Добавлен: 3 года 3 мес. назад | Торрент скачан:44 раза
Скачать  

23-08-2016 12:20 Великий Гэтсби Скачать торрент  

Великий Гэтсби / The Great Gatsby
Год выпуска: 1974
Страна: США
Жанр: драма, мелодрама
Продолжительность: 02:23:25
Перевод: Профессиональный (многоголосый)

Режиссер: Джек Клэйтон
Продюссер: Дэвид Меррик, Хэнк Мунджин
Сценарий: Френсис Форд Коппола, Фрэнсис Скотт Фицджеральд

Бюджет: $6 500 000



В ролях: Роберт Редфорд, Миа Фэрроу, Брюс Дерн, Карен Блэк, Скотт Уилсон, Сэм Уотерстон, Лоис Чайлз, Ховард Да Сильва, Робертс Блоссом, Эдвард Херрманн, Эллиот Салливан, Артур Хьюз, Кэтрин Ли Скотт, Бет Портер, Пол Тамарин, Джон Дэвлин, Пэтси Кензит, Блэйн Фэйрмэн, Боб Шерман, Норман Чансер, Регина Бэфф

Описание: Когда-то Джей Гэтсби был влюблен в очаровательную молодую леди по имени Дэйзи Бьюкенэн, которая предпочла ему состоятельного господина. И вот, восемь лет спустя, Гэтсби, разбогатевший таинственным образом, снова появляется на Лонг-Айленде, нарушив размеренную жизнь светского общества острова, чтобы вновь завоевать любовь дамы своего сердца..

Качество: HDRip
Формат: AVI
Видео кодек: XviD
Аудио кодек: AC3
Видео: XviD, 1246 Кбит/с, 704x392, 23.976 кадр/с
Аудио: AC3, 2 ch, 192 Кбит/с, 48 kHz
Релиз от: Koenig
Общее
Полное имя : The.Great.Gatsby.HDRip.avi
Формат : AVI
Формат/Информация : Audio Video Interleave
Размер файла : 1,45 Гбайт
Продолжительность : 2 ч. 23 м.
Общий поток : 1448 Кбит/сек
Программа кодирования : VirtualDubMod 1.5.10.2 (build 2540/release)
Библиотека кодирования : VirtualDubMod build 2540/release

Видео
Идентификатор : 0
Формат : MPEG-4 Visual
Профиль формата : Advanced Simple@L5
Параметр BVOP формата : 1
Параметр QPel формата : Нет
Параметр GMC формата : Без точки перехода
Параметр матрицы формата : Default (MPEG)
Идентификатор кодека : XVID
Идентификатор кодека/Подсказка : XviD
Продолжительность : 2 ч. 23 м.
Битрейт : 1246 Кбит/сек
Ширина : 704 пикселя
Высота : 392 пикселя
Соотношение сторон : 16:9
Частота кадров : 23,976 (23976/1000) кадра/сек
Цветовое пространство : YUV
Субдискретизация насыщенности : 4:2:0
Битовая глубина : 8 бит
Тип развёртки : Прогрессивная
Метод сжатия : С потерями
Бит/(Пиксели*Кадры) : 0.188
Размер потока : 1,25 Гбайт (86%)
Библиотека кодирования : XviD 1.2.0.dev47 (UTC 2006-11-01)

Аудио
Идентификатор : 1
Формат : AC-3
Формат/Информация : Audio Coding 3
Расширение режима : CM (complete main)
Параметр Endianness формата : Big
Идентификатор кодека : 2000
Продолжительность : 2 ч. 23 м.
Вид битрейта : Постоянный
Битрейт : 192 Кбит/сек
Каналы : 2 канала
Расположение каналов : Front: L R
Частота : 48,0 КГц
Частота кадров : 31,250 кадров/сек (1536 spf)
Метод сжатия : С потерями
Размер потока : 197 Мбайт (13%)
Выравнивание : Разделение по промежуткам
Продолжительность промежутка : 42 мс. (1,00 видеокадр)
Время предзагрузки промежутка : 500 мс.

pb.wtf



Скачать Великий Гэтсби через торрент http://pic1.kartinco.top/images/10/ivzp7.jpg Скачать фильм Великий Гэтсби через торрент бесплантно в хорошем качестве Описание: Когда-то Джей Гэтсби был влюблен в очаровательную молодую леди по имени Дэйзи Бьюкенэн, которая предпочла ему состоятельного ... 5 10 1
Торрент: Зарегистрирован [2016-08-23 12:20] · скачан: 44 раз
Статус: √ проверено
Размер: 1.45 GB
Как cкачать? Как скачать Великий Гэтсби через торрент | qTorrent

28-11-2019 20:33  

Отключить всю рекламу на сайте

23-08-2016 15:28 Великий Гэтсби Скачать торрент  

Это оригинал)pb.wtf



24-08-2016 09:54 Великий Гэтсби Скачать торрент  

bober100 писал(а):

Это оригинал)

Нет. Первая экранизация одноименного романа Фрэнсиса Скотта Фицджеральда была в далеком 1926 году. Это третья по счету, после версии 1949 года. Еще были варианты в 2000 и 2013 годах.pb.wtf



    Дорогой пользователь! Огромная просьба, поблагодарите релизера, оцените раздачу и оставьте свои комментарий, если Вы скачали Великий Гэтсби через торрент бесплатно! Внесите свою лепту в развитие PiratBit!
    Комментировать посты могут только пользователи прошедшие не сложную регистрацию
    Показать сообщения:    

    Великий Гэтсби через торрент
    Скачать бесплатно Великий Гэтсби
    Великий Гэтсби скачать торрент
    Великий Гэтсби смотреть онлайн
    Cкачать фильм Великий Гэтсби бесплатно
    Великий Гэтсби скачать торрент в хорошем качестве
    Великий Гэтсби смотреть онлайн бесплатно в хорошем качестве


    Вы не можете начинать темы
    Вы не можете отвечать на сообщения
    Вы не можете редактировать свои сообщения
    Вы не можете удалять свои сообщения
    Вы не можете голосовать в опросах
    Вы не можете прикреплять файлы к сообщениям
    Вы можете скачивать файлы