новый адрес
Ссылка на приватное зеркало всего за 1$. Внимание количество ограничено!!!

iTunes

1+1

iTunes

мы

iTunes

1

iTunes

Чернобыль

iTunes

Ральф против интернета

Лицензия

ПШазам

Лицензия

Оно 2

Лицензия

30
pack

Вам бонус

ВАЖНО

!!Акция!!

Alien_RageХит недели

RePack

Resident Evil 21

ИГРА 18+

pack

RePack

jed

!!Акция!!

Alien_Rage

RePack

fifa19

RePack

Assassins Creed: Odyssey

RePack

NEED FOR SPEED™ PAYBACK

3 сезон

9 сезон

Бесстыжие 9 сезон

Все сериалы

все сериалы на PB.wtf

RePack

FAR CRY 5
Ребята, катастрофически не хватает 1900р. для оплаты серверов за Октябрь (всвязи с блокировками трафик упал в 3 раза), 1-2р., выручайте.
  

Срок жизни / Term Life (Питер Биллингсли ) [2016, триллер, драма, криминал, BD Remux [Оригинал] pb.wtf

Срок жизни через торрент pb.wtf

Размер: 25.14 GB | Добавлен: 3 года 3 мес. назад | Торрент скачан:6 раз
Скачать  

23-08-2016 12:25 Срок жизни Скачать торрент  

Срок жизни / Term Life

Год выпуска: 2016
Страна: США
Жанр: триллер, драма, криминал
Продолжительность: 01:32:44
Перевод: Перевод отсутствует [Оригинал]
Субтитры: английский
Режиссер: Питер Биллингсли
В ролях: Винс Вон (Nick Barrow), Хейли Стайнфелд (Cate Barrow), Билл Пэкстон (Joe Keenan), Джонатан Бэнкс (Harper), Хорди Молья (Viktor), Терренс Ховард (Braydon), Ши Уигхэм (Matty Miller), Джон Фавро (Jimmy Lincoln), Уильям Леви (Allejandro), Майк Эппс (Darryl Mosley), Тараджи П. Хенсон (Samantha Thurman), Кейн Веласкес (Marco)
Описание:
Фильм рассказывает о персонаже по имени Ник Бэрроу, который планирует кражи, а потом продаёт эти проекты тому, кто больше заплатит. Но наступает чёрный день - один из замыслов Ника с треском проваливается, и теперь его смерти жаждут все, начиная с главарей мафии и заканчивая оборотнями в погонах.
Поняв, что от судьбы не убежишь, герой решает сделать напоследок что-то хорошее - он страхует жизнь на миллион долларов, чтобы после смерти обеспечить свою дочь. Не учитывает Ник только одного - страховка начнет действовать лишь через 21 день, в течение которых герою необходимо оставаться в живых. А это в его ситуации совсем не просто.
Рейтинг:

MPAA: R - Лицам до 17 лет обязательно присутствие взрослого
Качество: BD Remux
Формат: MKV
Видео: AVC, 1920x1080 (16:9), 35053 kbps, 23,976 fps, 0,705 bpp
Аудио: английский / DTS-HD / 5.1 / 48 kHz / 3707 kbps / 24 bit (Core: 5.1 / 48 kHz / 1509 kbps / 24 bit)
Навигация по главам: есть

General
Unique ID
Complete name Term Life 2016 1080p Blu-ray Remux AVC DTS-HD MA 5.1 - KRaLiMaRKo\Term Life 2016 1080p Blu-ray Remux AVC DTS-HD MA 5.1 - KRaLiMaRKo.mkv
Format : Matroska
Format version : Version 4 / Version 2
File size : 25.1 GiB
Duration : 1 h 32 min
Overall bit rate mode : Variable
Overall bit rate : 38.8 Mb/s
Movie name : Term Life 2016 1080p Blu-ray Remux AVC DTS-HD MA 5.1 - KRaLiMaRKo
Encoded date : UTC 2016-06-29 12:53:22
Writing application : mkvmerge v9.2.0 ('Photograph') 64bit
Writing library : libebml v1.3.3 + libmatroska v1.4.4

Video
ID : 1
Format : AVC
Format/Info : Advanced Video Codec
Format profile : High@L4.1
Format settings, CABAC : Yes
Format settings, ReFrames : 4 frames
Codec ID : V_MPEG4/ISO/AVC
Duration : 1 h 32 min
Bit rate mode : Variable
Bit rate : 35.1 Mb/s
Maximum bit rate : 37.0 Mb/s
Width : 1 920 pixels
Height : 1 080 pixels
Display aspect ratio : 16:9
Frame rate mode : Constant
Frame rate : 23.976 (24000/1001) FPS
Color space : YUV
Chroma subsampling : 4:2:0
Bit depth : 8 bits
Scan type : Progressive
Bits/(Pixel*Frame) : 0.705
Stream size : 22.7 GiB (90%)
Language : English
Default : Yes
Forced : No

Audio
ID : 2
Format : DTS
Format/Info : Digital Theater Systems
Format profile : MA / Core
Mode : 16
Format settings, Endianness : Big
Codec ID : A_DTS
Duration : 1 h 32 min
Bit rate mode : Variable / Constant
Bit rate : 3 708 kb/s / 1 509 kb/s
Channel(s) : 6 channels
Channel positions : Front: L C R, Side: L R, LFE
Sampling rate : 48.0 kHz
Frame rate : 93.750 FPS (512 spf)
Bit depth : 24 bits
Compression mode : Lossless / Lossy
Stream size : 2.40 GiB (10%)
Language : English
Default : Yes
Forced : No

Text
ID : 3
Format : PGS
Codec ID : S_HDMV/PGS
Codec ID/Info : Picture based subtitle format used on BDs/HD-DVDs
Duration : 1 h 29 min
Bit rate : 45.8 kb/s
Count of elements : 2976
Stream size : 29.3 MiB (0%)
Title : SDH
Language : English
Default : Yes
Forced : No

Menu
00:00:00.000 : en:00:00:00.000
00:07:30.241 : en:00:07:30.241
00:13:04.951 : en:00:13:04.951
00:19:25.623 : en:00:19:25.623
00:24:38.811 : en:00:24:38.811
00:28:01.680 : en:00:28:01.680
00:32:49.467 : en:00:32:49.467
00:37:35.044 : en:00:37:35.044
00:42:13.197 : en:00:42:13.197
00:46:56.981 : en:00:46:56.981
00:50:42.456 : en:00:50:42.456
00:55:20.067 : en:00:55:20.067
00:58:37.305 : en:00:58:37.305
01:03:44.112 : en:01:03:44.112
01:07:57.949 : en:01:07:57.949
01:14:37.848 : en:01:14:37.848
01:19:45.781 : en:01:19:45.781
01:21:29.635 : en:01:21:29.635
01:25:30.083 : en:01:25:30.083
01:27:32.205 : en:01:27:32.205
pb.wtf



Скачать Срок жизни через торрент http://i3.imageban.ru/out/2016/08/23/778c6c7f66f7568422f05e854a902b40.jpg Скачать фильм Срок жизни через торрент бесплантно в хорошем качестве Описание: Фильм рассказывает о персонаже по имени Ник Бэрроу, который планирует кражи, а потом продаёт эти проекты тому, кто больше ... 5.5 10 2
Info! Золотая раздача, скачанное не засчитывается.
Торрент: Зарегистрирован [2016-08-23 12:25] · скачан: 6 раз
Статус: √ проверено
Размер: 25.14 GB
Как cкачать? Как скачать Срок жизни через торрент | qTorrent

% Раздел Тема Автор DL S | L
T Релизы по Парсеру [Игры, Сериалы и Фильмы и другое...] [ 9.82 GB ] Срок жизни / Term Life BDRip 1080p Ворон Скачать
1 | 0
Фильмы 2016 [DVDrip, WEB-DLRip, HDrip] (DUB, MVO) [ 1.45 GB ] Срок жизни / Term Life [2016 WEB-DLRip] MVO Ворон Скачать
1 | 0
T R.G. Resident & PiratVoice - Фильмы, Видео [ 1.46 GB ] Срок жизни / Term Life [2016 WEB-DLRip-AVC VO ] От R.G.Resident White Smoke Скачать
1 | 0
T Фильмы (WEB-DL 720p, 1080p) [ 3.39 GB ] Срок жизни / Term Life [2016 WEB-DL 1080p] VO [datynet] -Lexx- Скачать
1 | 0
T Фильмы 2016 (Звук TS, Cam, VO, DVO) [ 1.45 GB ] Срок жизни / Term Life [2016 WEB-DLRip] VO [datynet] -Lexx- Скачать
1 | 0
Отключить всю рекламу на сайте

23-08-2016 15:29 Срок жизни Скачать торрент  

Норм фильм)pb.wtf



    Дорогой пользователь! Огромная просьба, поблагодарите релизера, оцените раздачу и оставьте свои комментарий, если Вы скачали Срок жизни через торрент бесплатно! Внесите свою лепту в развитие PiratBit!
    Комментировать посты могут только пользователи прошедшие не сложную регистрацию
    Показать сообщения:    

    Срок жизни через торрент
    Скачать бесплатно Срок жизни
    Срок жизни скачать торрент
    Срок жизни смотреть онлайн
    Cкачать фильм Срок жизни бесплатно
    Срок жизни скачать торрент в хорошем качестве
    Срок жизни смотреть онлайн бесплатно в хорошем качестве


    Вы не можете начинать темы
    Вы не можете отвечать на сообщения
    Вы не можете редактировать свои сообщения
    Вы не можете удалять свои сообщения
    Вы не можете голосовать в опросах
    Вы не можете прикреплять файлы к сообщениям
    Вы можете скачивать файлы