Ссылка на приватное зеркало всего за 1$. Внимание количество ограничено!!!

OK

1+1

iTunes

мы

OK

1

WEB-DLRip

Джокер

Пифагор

Ведьмак / The Witcher сериал

Лицензия

ПШазам

ОК

Оно 2

iTunes

30
pack

Вам бонус

ВАЖНО

!!Акция!!

Alien_RageХит недели

RePack

Resident Evil 21

ИГРА 18+

pack

RePack

jed

!!Акция!!

Alien_Rage

RePack

fifa19

RePack

Assassins Creed: Odyssey

RePack

NEED FOR SPEED™ PAYBACK

4 сезон

9 сезон

Бесстыжие 9 сезон

Все сериалы

все сериалы на PB.wtf

RePack

FAR CRY 5
  

Холодильник (Максим Кулагин) [2013 г., короткометражка, драма, WEB-DLRip] pb.wtf

Холодильник через торрент pb.wtf

Размер: 349 MB | Добавлен: 3 года 4 мес. назад | Торрент скачан:180 раз
Скачать  

23-08-2016 13:14 Холодильник Скачать торрент  

Холодильник
Год выпуска: 2013
Страна: Россия
Жанр: короткометражка, драма
Продолжительность: 00:32:24

Режиссер: Максим Кулагин



В ролях: Александр Петров, Максим Виноградов, Дмитрий Чеботарёв, Наталья Павленкова

Описание: Максим, мечтает уехать в Лондон и наконец получает визу. Но простая просьба матери выбросить старый холодильник может поставить крест на его мечте!

Качество: WEB-DLRip
Формат: AVI
Видео кодек: XviD
Аудио кодек: AC3
Видео: XviD, 720x272, 23.976 fps, 1302 kb/s
Аудио: AC-3, 48.0 kHz, 2 ch, 192 kb/s
General
Complete name : C:\PiratBit\Xolodilnik.WEBDLRip.avi
Format : AVI
Format/Info : Audio Video Interleave
File size : 349 MiB
Duration : 32 min
Overall bit rate : 1 504 kb/s
Writing application : VirtualDubMod 1.5.10.3 | www.virtualdub-fr.org || (build 2550/release)
Writing library : VirtualDub build 35503/release

Video
ID : 0
Format : MPEG-4 Visual
Format profile : Advanced Simple@L5
Format settings, BVOP : 2
Format settings, QPel : No
Format settings, GMC : No warppoints
Format settings, Matrix : Default (MPEG)
Codec ID : XVID
Codec ID/Hint : XviD
Duration : 32 min
Bit rate : 1 302 kb/s
Width : 720 pixels
Height : 272 pixels
Display aspect ratio : 2.647
Frame rate : 23.976 (23976/1000) FPS
Color space : YUV
Chroma subsampling : 4:2:0
Bit depth : 8 bits
Scan type : Progressive
Compression mode : Lossy
Bits/(Pixel*Frame) : 0.277
Stream size : 302 MiB (87%)
Writing library : XviD 1.2.1 (UTC 2008-12-04)

Audio
ID : 1
Format : AC-3
Format/Info : Audio Coding 3
Mode extension : CM (complete main)
Format settings, Endianness : Big
Codec ID : 2000
Duration : 32 min
Bit rate mode : Constant
Bit rate : 192 kb/s
Channel(s) : 2 channels
Channel positions : Front: L R
Sampling rate : 48.0 kHz
Frame rate : 31.250 FPS (1536 spf)
Compression mode : Lossy
Delay relative to video : 5 ms
Stream size : 44.5 MiB (13%)
Alignment : Split accross interleaves
Interleave, duration : 42 ms (1.00 video frame)
Interleave, preload duration : 500 ms

pb.wtf



Скачать Холодильник через торрент http://pic1.kartinco.top/images/10/r9uiu.jpg Скачать фильм Холодильник через торрент бесплантно в хорошем качестве Описание: Максим, мечтает уехать в Лондон и наконец получает визу. Но простая просьба матери выбросить старый холодильник может поставить ... 8.7 10 7
Торрент: Зарегистрирован [2016-08-23 13:14] · скачан: 180 раз
Статус: √ проверено
Размер: 349 MB
Как cкачать? Как скачать Холодильник через торрент | qTorrent

% Раздел Тема Автор DL S | L
T Фильмы (мультфильмы) cо спонсором показа (Новинки AVI/MKV) [ 3.56 GB ] Положи бабушку в холодильник / Metti la nonna in freezer [2018 WEB-DL 720p] MVO ["Синема УС"] bober100 Скачать
1 | 0
T Фильмы (мультфильмы) cо спонсором показа (Новинки AVI/MKV) [ 1.37 GB ] Положи бабушку в холодильник / Metti la nonna in freezer [2018 WEB-DLRip] MVO ["Синема УС"] bober100 Скачать
1 | 0
Фильмы 2012 [ 1.37 GB ] Холодильник / Pridyider [2012 DVDRip DVO] k1z Скачать
1 | 0
Отечественный Рэп, Хип-Хоп [ 103 MB ] DP FM - Холодильник 2013 / MP3 / 320 kbps / Rap Hip-Hop VladiRU Скачать
1 | 0

28-11-2019 20:33  

Отключить всю рекламу на сайте

23-08-2016 17:16 Холодильник Скачать торрент  

Фильм про холодильник сильно)pb.wtf



23-08-2016 17:53 Холодильник Скачать торрент  

или холодно?pb.wtf



23-08-2016 20:18 Холодильник Скачать торрент  

kpuctaluk писал(а):

или холодно?

Сильно холодно pb.wtf



    Дорогой пользователь! Огромная просьба, поблагодарите релизера, оцените раздачу и оставьте свои комментарий, если Вы скачали Холодильник через торрент бесплатно! Внесите свою лепту в развитие PiratBit!
    Комментировать посты могут только пользователи прошедшие не сложную регистрацию
    Показать сообщения:    

    Холодильник через торрент
    Скачать бесплатно Холодильник
    Холодильник скачать торрент
    Холодильник смотреть онлайн
    Cкачать фильм Холодильник бесплатно
    Холодильник скачать торрент в хорошем качестве
    Холодильник смотреть онлайн бесплатно в хорошем качестве


    Вы не можете начинать темы
    Вы не можете отвечать на сообщения
    Вы не можете редактировать свои сообщения
    Вы не можете удалять свои сообщения
    Вы не можете голосовать в опросах
    Вы не можете прикреплять файлы к сообщениям
    Вы можете скачивать файлы