Ссылка на приватное зеркало всего за 1$. Внимание количество ограничено!!!

OK

1+1

iTunes

мы

OK

1

WEB-DLRip

Джокер

Пифагор

Ведьмак / The Witcher сериал

Лицензия

ПШазам

ОК

Оно 2

iTunes

30
pack

Вам бонус

ВАЖНО

!!Акция!!

Alien_RageХит недели

RePack

Resident Evil 21

ИГРА 18+

pack

RePack

jed

RePack

fifa19

RePack

Assassins Creed: Odyssey

RePack

NEED FOR SPEED™ PAYBACK

4 сезон

9 сезон

Бесстыжие 9 сезон

Все сериалы

все сериалы на PB.wtf

RePack

FAR CRY 5
  

Кровавая луна / Blood Moon (Джереми Вудинг) [2014 г., ужасы, триллер, вестерн, HDRip, Любительский одноголосый Xixidok] pb.wtf

Кровавая луна через торрент pb.wtf

Размер: 1.24 GB | Добавлен: 3 года 4 мес. назад | Торрент скачан:165 раз
Скачать  

23-08-2016 13:24 Кровавая луна Скачать торрент  

Кровавая луна / Blood MoonГод выпуска: 2014
Страна: Великобритания
Жанр: ужасы, триллер, вестерн
Продолжительность: 01:25:43
Перевод: Любительский одноголосый Xixidok
Субтитры: Отсутствуют

Режиссер: Джереми Вудинг
Продюссер: Майкл Вайн, Джереми Вудинг, Fiona Graham
Сценарий: Алан Уайтман

Бюджет: £520 000
Премьера в мире: 25 августа 2014

лицам до 17 лет обязательно присутствие взрослого
http://www.imdb.com/title/tt3529110/



В ролях: Джордж Благден, Том Котчер, Бэрри Де Ла Рош, Раффаэлло Дегруттола, Шон Дули, Джек Фокс, Дэйв Фултон, Кори Джонсон, Тони Ло, Элинор Мацуура

Описание: 1887 Колорадо. Пустынный город освещен сиянием красноватого полнолуния. Дилижанс, полный пассажиров и загадочный стрелок в плену у двух преступников,находящихся в бегах. Когда путешественники пытаются перехитрить преступников, становится очевидным, что большая угроза таится снаружи. Зверь, который появляется только в ночь кроваво-красной луны.

Качество: HDRip
Формат: AVI
Видео кодек: XviD
Аудио кодек: MP3
Видео: 720x304 (2.37:1), 24 fps, XviD MPEG-4 ~1872 kbps avg, 0.36 bit/pixel
Аудио#1: 44.100 kHz, MPEG Layer 3, 2 ch, ~192.00 kbps avg

Присутствует не значительная Реклама!
скриншот  скриншот  скриншот  скриншот  скриншот  скриншот  





General
Complete name : E:\Blood.Moon.2014.Xixidok.avi
Format : AVI
Format/Info : Audio Video Interleave
File size : 1.24 GiB
Duration : 1h 25mn
Overall bit rate : 2 074 Kbps
Writing application : VirtualDubMod 1.5.10.3 (build 2550/release)
Writing library : VirtualDubMod build 2550/release

Video
ID : 0
Format : MPEG-4 Visual
Format profile : Advanced Simple@L5
Format settings, BVOP : 2
Format settings, QPel : No
Format settings, GMC : No warppoints
Format settings, Matrix : Default (H.263)
Muxing mode : Packed bitstream
Codec ID : XVID
Codec ID/Hint : XviD
Duration : 1h 25mn
Bit rate : 1 873 Kbps
Width : 720 pixels
Height : 304 pixels
Display aspect ratio : 2.35:1
Frame rate : 24.000 fps
Color space : YUV
Chroma subsampling : 4:2:0
Bit depth : 8 bits
Scan type : Progressive
Compression mode : Lossy
Bits/(Pixel*Frame) : 0.357
Stream size : 1.12 GiB (90%)
Writing library : XviD 66

Audio
ID : 1
Format : MPEG Audio
Format version : Version 1
Format profile : Layer 3
Codec ID : 55
Codec ID/Hint : MP3
Duration : 1h 25mn
Bit rate mode : Constant
Bit rate : 192 Kbps
Channel count : 2 channels
Sampling rate : 44.1 KHz
Compression mode : Lossy
Stream size : 118 MiB (9%)
Alignment : Split accross interleaves
Interleave, duration : 42 ms (1.00 video frame)
Interleave, preload duration : 500 ms

pb.wtf



Скачать Кровавая луна через торрент http://s018.radikal.ru/i512/1608/c3/7fd73dbfbfb0.png Скачать фильм Кровавая луна через торрент бесплантно в хорошем качестве Описание: 1887 Колорадо. Пустынный город освещен сиянием красноватого полнолуния. Дилижанс, полный пассажиров и загадочный стрелок в плену ... 7.1 10 14
Торрент: Зарегистрирован [2016-08-23 13:24] · скачан: 165 раз
Статус: T временная
Размер: 1.24 GB
Как cкачать? Как скачать Кровавая луна через торрент | qTorrent

% Раздел Тема Автор DL S | L
Фильмы до 2000 г. [ 1.45 GB ] Кровавая луна / Bloodmoon [1997 искусства DVDRip] nobana Скачать
1 | 0
Фильмы (WEB-DL 720p, 1080p) [ 3.17 GB ] Кровавая луна / Blood Moon [2014 WEB-DL 1080p] VO smaster Скачать
1 | 0
Фильмы 2009 [ 773 MB ] Восход Кровавой Луны / Blood Moon Rising [2009 Трэш DVDRip] ПАРАДОКС Скачать
1 | 0

28-11-2019 20:33  

Отключить всю рекламу на сайте

23-08-2016 14:36 Кровавая луна Скачать торрент  

На 1 скрине Дикаприо ?))))pb.wtf



23-08-2016 14:41 Кровавая луна Скачать торрент  

PIXELINTERLAN писал(а):

На 1 скрине Дикаприо ?))))

по моему,это его Дедушка pb.wtf



23-08-2016 16:36 Кровавая луна Скачать торрент  

PIXELINTERLAN писал(а):

На 1 скрине Дикаприо ?))))

А на 6 чубаккаpb.wtf



24-08-2016 03:09 Кровавая луна Скачать торрент  

Есть старый фильм с таким же названием. Будем этот поглядеть. Спасибо за раздачу.pb.wtf



24-08-2016 05:05 Кровавая луна Скачать торрент  

Спасибо надо глянуть)pb.wtf



    Дорогой пользователь! Огромная просьба, поблагодарите релизера, оцените раздачу и оставьте свои комментарий, если Вы скачали Кровавая луна через торрент бесплатно! Внесите свою лепту в развитие PiratBit!
    Комментировать посты могут только пользователи прошедшие не сложную регистрацию
    Показать сообщения:    

    Кровавая луна через торрент
    Скачать бесплатно Кровавая луна
    Кровавая луна скачать торрент
    Кровавая луна смотреть онлайн
    Cкачать фильм Кровавая луна бесплатно
    Кровавая луна скачать торрент в хорошем качестве
    Кровавая луна смотреть онлайн бесплатно в хорошем качестве


    Вы не можете начинать темы
    Вы не можете отвечать на сообщения
    Вы не можете редактировать свои сообщения
    Вы не можете удалять свои сообщения
    Вы не можете голосовать в опросах
    Вы не можете прикреплять файлы к сообщениям
    Вы можете скачивать файлы