2 сезон

iTunes

1 сезон

1

iTunes

iTunes

iTunes

1 сезон

RePack

30

ИГРА 18+

pack

ВАЖНО

!!Акция!!

Alien_RageХит недели

RePack

MK11
pack

Забери бонус

RePack

jed

!!Акция!!

Alien_Rage

RePack

fifa19

RePack

Assassins Creed: Odyssey

RePack

NEED FOR SPEED™ PAYBACK

4 сезон

9 сезон

Бесстыжие 9 сезон

Все сериалы

все сериалы на PB.wtf

RePack

FAR CRY 5
  

Русские горы / Rollercoaster (Джеймс Голдстоун) [1977, боевик, триллер, драма, криминал, BDRip 720p by msltel] MVO pb.wtf

Русские горы через торрент pb.wtf

Размер: 4.41 GB | Добавлен: 4 года 2 мес. назад | Торрент скачан:10 раз
Скачать  

24-08-2016 08:36 Русские горы Скачать торрент  

Название: Русские горы
Оригинальное название: Rollercoaster
Год выпуска: 1977
Страна: США
Жанр: боевик, триллер, драма, криминал
Продолжительность: 01:58:38
Перевод: профессиональный многоголосый

Режиссёр: Джеймс Голдстоун

В ролях: Джордж Сигал, Ричард Уидмарк, Тимоти Боттомс, Генри Фонда, Гарри Гуардино, Сьюзен Страсберг, Хелен Хант, Дороти Тристан, Гарри Дэвис, Стивен Перлман, Уэйн Типпит, Майкл Белл

Описание: Террорист начинает превращать американские парки аттракционов в кровавые поля сражений. Сюжет разворачивается, напряжение возрастает. Ответственный за безопасность аттракционов инспектор Харри Калдер пытается выследить преступника, одержимого бессмысленной жаждой разрушения. Террорист выбрал своей мишенью самый популярный в стране аттракцион «Русские горы» и его посетителей... По рассказу Тимоти Кука.



Качество: BDRip 720p Сравнение с исходником
Формат: MKV
Видео: MPEG-4 AVC, 4933 Кбит/с, 1280x544, 23,976 кадра/с
Аудио 1: русский, AC3, 192 kbps, 2 ch, 48 kHz [профессиональный многоголосый, R5, Пифагор]
Аудио 2: английский, AC3, 192 kbps, 2 ch, 48 kHz [оригинал]
Субтитры: английские (для слабослышащих)
Общее
Уникальный идентификатор : 170323153500790744749779404087418660891 (0x80230BD0CFCB72C2B2DF1E154DA7A81B)
Полное имя : D:\Video\Русские горы.1977.BDRip.720p.mkv
Формат : Matroska
Версия формата : Version 4 / Version 2
Размер файла : 4,41 Гбайт
Продолжительность : 1 ч. 58 м.
Общий поток : 5320 Кбит/сек
Дата кодирования : UTC 2016-08-23 14:57:19
Программа кодирования : mkvmerge v8.2.0 ('World of Adventure') 64bit
Библиотека кодирования : libebml v1.3.1 + libmatroska v1.4.2

Видео
Идентификатор : 1
Формат : AVC
Формат/Информация : Advanced Video Codec
Профиль формата : High@L4.1
Параметр CABAC формата : Да
Параметр ReFrames формата : 9 кадров
Идентификатор кодека : V_MPEG4/ISO/AVC
Продолжительность : 1 ч. 58 м.
Битрейт : 4933 Кбит/сек
Ширина : 1280 пикселей
Высота : 544 пикселя
Соотношение сторон : 2,35:1
Режим частоты кадров : Постоянный
Частота кадров : 23,976 (24000/1001) кадра/сек
Цветовое пространство : YUV
Субдискретизация насыщенности : 4:2:0
Битовая глубина : 8 бит
Тип развёртки : Прогрессивная
Бит/(Пиксели*Кадры) : 0.296
Размер потока : 4,09 Гбайт (93%)
Библиотека кодирования : x264 core 146 r2538 121396c
Настройки программы : cabac=1 / ref=9 / deblock=1:-3:-3 / analyse=0x3:0x113 / me=umh / subme=10 / psy=1 / psy_rd=1.00:0.15 / mixed_ref=1 / me_range=32 / chroma_me=1 / trellis=2 / 8x8dct=1 / cqm=0 / deadzone=21,11 / fast_pskip=1 / chroma_qp_offset=-3 / threads=6 / lookahead_threads=1 / sliced_threads=0 / nr=0 / decimate=1 / interlaced=0 / bluray_compat=0 / constrained_intra=0 / bframes=14 / b_pyramid=2 / b_adapt=2 / b_bias=0 / direct=1 / weightb=1 / open_gop=0 / weightp=2 / keyint=230 / keyint_min=23 / scenecut=40 / intra_refresh=0 / rc_lookahead=40 / rc=crf / mbtree=0 / crf=19.8 / qcomp=0.60 / qpmin=0 / qpmax=69 / qpstep=4 / vbv_maxrate=40000 / vbv_bufsize=50000 / crf_max=0.0 / nal_hrd=none / filler=0 / ip_ratio=1.40 / pb_ratio=1.30 / aq=1:1.00
Язык : English
Default : Да
Forced : Нет

Аудио #1
Идентификатор : 2
Формат : AC-3
Формат/Информация : Audio Coding 3
Расширение режима : CM (complete main)
Параметр Endianness формата : Big
Идентификатор кодека : A_AC3
Продолжительность : 1 ч. 58 м.
Вид битрейта : Постоянный
Битрейт : 192 Кбит/сек
Каналы : 2 канала
Расположение каналов : Front: L R
Частота : 48,0 КГц
Частота кадров : 31,250 кадров/сек (1536 spf)
Метод сжатия : С потерями
Размер потока : 163 Мбайт (4%)
Заголовок : MVO (R5, Пифагор)
Язык : Russian
Default : Да
Forced : Нет

Аудио #2
Идентификатор : 3
Формат : AC-3
Формат/Информация : Audio Coding 3
Расширение режима : CM (complete main)
Параметр Endianness формата : Big
Идентификатор кодека : A_AC3
Продолжительность : 1 ч. 58 м.
Вид битрейта : Постоянный
Битрейт : 192 Кбит/сек
Каналы : 2 канала
Расположение каналов : Front: L R
Частота : 48,0 КГц
Частота кадров : 31,250 кадров/сек (1536 spf)
Метод сжатия : С потерями
Размер потока : 163 Мбайт (4%)
Заголовок : original
Язык : English
Default : Нет
Forced : Нет

Текст
Идентификатор : 4
Формат : UTF-8
Идентификатор кодека : S_TEXT/UTF8
Идентификатор кодека/Информация : UTF-8 Plain Text
Продолжительность : 1 ч. 56 м.
Битрейт : 63 бит/сек
Count of elements : 1836
Размер потока : 54,0 Кбайт (0%)
Заголовок : английские (для слабослышащих)
Язык : English
Default : Нет
Forced : Нет
pb.wtf



Скачать Русские горы через торрент http://s019.radikal.ru/i625/1608/33/2e8280abbe26.jpg Скачать фильм Русские горы через торрент бесплантно в хорошем качестве Описание: Террорист начинает превращать американские парки аттракционов в кровавые поля сражений. Сюжет разворачивается, напряжение ... 4 10 3
Info! Золотая раздача, скачанное не засчитывается.
Торрент: Зарегистрирован [2016-08-24 08:36] · скачан: 10 раз
Статус: √ проверено
Размер: 4.41 GB
Как cкачать? Как скачать Русские горы через торрент | qTorrent

% Раздел Тема Автор DL S | L
Фильмы [HD 720p, 1080p] (Хороший звук DUB, MVO) [ 13.69 GB ] Русские горы / Rollercoaster [1977 BDRip 1080p by msltel] MVO msltel Скачать
1 | 0

28-11-2019 20:33  

Отключить всю рекламу на сайте

24-08-2016 12:52 Русские горы Скачать торрент  

Древний боевичок)pb.wtf



    Дорогой пользователь! Огромная просьба, поблагодарите релизера, оцените раздачу и оставьте свои комментарий, если Вы скачали Русские горы через торрент бесплатно! Внесите свою лепту в развитие PiratBit!
    Комментировать посты могут только пользователи прошедшие не сложную регистрацию
    Показать сообщения:    

    Русские горы через торрент
    Скачать бесплатно Русские горы
    Русские горы скачать торрент
    Русские горы смотреть онлайн
    Cкачать фильм Русские горы бесплатно
    Русские горы скачать торрент в хорошем качестве
    Русские горы смотреть онлайн бесплатно в хорошем качестве


    Вы не можете начинать темы
    Вы не можете отвечать на сообщения
    Вы не можете редактировать свои сообщения
    Вы не можете удалять свои сообщения
    Вы не можете голосовать в опросах
    Вы не можете прикреплять файлы к сообщениям
    Вы можете скачивать файлы