Присоединяйтесь к нам в Telegram!, здесь всегда актуальный адрес сайта, оперативная поддержка и многое другое!!

>

5.9

iTunes

7.4

iTunes

9.4

1 сезон

1

7.4

2 сезон

7.2

iTunes

7.3

1 сезон

13

6.1

iTunes

8.3

GOG

30

ULTIMATE

pack

9.9

Лицензия

ВАЖНО

ИГРА 18+

pack

7.3

RePack

MK11

7.7

RePack

jed

7.8

RePack

fifa19

8.5

RePack

RDR2

RePack

NEED FOR SPEED™ PAYBACK

5 сезон

9 сезон

Бесстыжие 9 сезон

Все сериалы

все сериалы на PB.wtf

RePack

FAR CRY 5

Anonymous, доброй ночи, мы катастрофически не успеваем собрать деньги на оплату серверов, помогите нам пожалуйста 5,10,15р., для нас важна любая помощь . В качестве благодарности мы отключим Вам всю рекламу на сайте (укажите свой ник в строку Ваше имя)!

×
  
Magnet ссылка

Сборник песен на любой вкус [2004, Поп, шансон, 2xDVD5] pb.wtf

Сборник песен на любой вкус через торрент pb.wtf

Размер: 8.58 GB | Добавлен: 5 лет 3 мес. назад | Торрент скачан:41 раз
Смотреть онлайн Сборник песен на любой вкус | Скачать    Ребята, помогите собрать деньги на оплату серверов!!!

24-08-2016 10:04 Сборник песен на любой вкус Скачать торрент  

Сборник песен на любой вкус
Страна: Россия
Жанр: Поп, шансон
Продолжительность: 01:35:30 / 05:14:41 / 00:10:27
Год выпуска: 2004
Описание: Сборник песен на любой вкус!
Оригинальные диски идущие с плеером (SHINCO)
1. Зачем топтать мою любовь
2. Рюмка водки на столе
3. Миллион
4. Ели мясо мужыки
5. Я верю я дождусь
6. Smile
7. Вечно молодой
8. Натали
9. Волосокрад
10. Крыса
11. Счастье.
12. Пока это кажеться важным.
13. Раздумья мои
14. Проклятый старый дом
15. Охотник
16. Шелест
17. Первый день осени.
18. Мёртвый анархист
19. Звезды 3000
20. Сумасшедшая девочка
21. Первый день рождения.
22. Разум когда-нибудь победит
23. Небо на земле
24. Вечно молодой (ремикс)
25. Песок
Качество: DVD5
Формат: DVD video
Видео кодек: MPEG Video
Аудио кодек: AC3
Видео: PAL 4:3 (720x576) VBR
Аудио: Russian (Dolby AC3, 6 ch), 640 kb/s
Аудио 2: Russian (Dolby AC3, 2 ch), 640 kb/s
Title:
Size: 4.22 Gb ( 4 422 094 KBytes ) - DVD-5
Enabled regions: 1, 2, 3, 4, 5, 6, 8

VTS_01 :
Play Length: 01:35:30
Video: PAL 4:3 (720x576) VBR
Audio:
Russian (Dolby AC3, 6 ch)
Russian (Dolby AC3, 2 ch)

Menu Video:
PAL 4:3 (720x576) VBR
Menu Audio:
Not specified (Dolby AC3, 6 ch)
Menu Subtitles:
Not specified
Menu English Language Unit :
Root Menu
General
Complete name : C:\Users\Desktop\KARAOKE\SHINCO-1 (25 песен)\VIDEO_TS\VTS_01_1.VOB
Format : MPEG-PS
File size : 1 024 MiB
Duration : 1 min
Overall bit rate : 135 Mb/s
Writing library : encoded by TMPGEnc (ver. 2.513.53.162)

Video
ID : 224 (0xE0)
Format : MPEG Video
Format version : Version 2
Format profile : Main@Main
Format settings, BVOP : Yes
Format settings, Matrix : Custom
Format settings, GOP : M=3, N=13
Format settings, picture st : Frame
Duration : 1 min
Bit rate : 131 Mb/s
Maximum bit rate : 4 800 kb/s
Width : 720 pixels
Height : 576 pixels
Display aspect ratio : 4:3
Frame rate : 25.000 FPS
Standard : PAL
Color space : YUV
Chroma subsampling : 4:2:0
Bit depth : 8 bits
Scan type : Interlaced
Scan order : Bottom Field First
Compression mode : Lossy
Bits/(Pixel*Frame) : 12.643
Time code of first frame : 00:00:00:00
Time code source : Group of pictures header
GOP, Open/Closed : Closed
Stream size : 994 MiB (97%)
Writing library : TMPGEnc 2.513.53.162
Color primaries : BT.601 PAL
Transfer characteristics : BT.470 System B, BT.470 System G
Matrix coefficients : FCC 73.682

Audio #1
ID : 189 (0xBD)-128 (0x80)
Format : AC-3
Format/Info : Audio Coding 3
Mode extension : CM (complete main)
Format settings, Endianness : Big
Muxing mode : DVD-Video
Duration : 1 min
Bit rate mode : Constant
Bit rate : 640 kb/s
Channel(s) : 6 channels
Channel positions : Front: L C R, Side: L R, LFE
Sampling rate : 48.0 kHz
Frame rate : 31.250 FPS (1536 spf)
Compression mode : Lossy
Stream size : 4.84 MiB (0%)

Audio #2
ID : 189 (0xBD)-129 (0x81)
Format : AC-3
Format/Info : Audio Coding 3
Mode extension : CM (complete main)
Format settings, Endianness : Big
Muxing mode : DVD-Video
Duration : 1 min
Bit rate mode : Constant
Bit rate : 640 kb/s
Channel(s) : 2 channels
Channel positions : Front: L R
Sampling rate : 48.0 kHz
Frame rate : 31.250 FPS (1536 spf)
Compression mode : Lossy
Stream size : 4.84 MiB (0%)

Menu
1. Песня про зайцев
2. Очарована,околдована
3. Разлука
4. Ах, Самара-городок
5. Бывали дни веселые
6. Во деревне то было в Ольховке
7. Валенки
8. Все пройдет
9. Вдоль по Питерской
10. Вдоль по улице метелица метет
11. Вечерний звон
12. Виновата ли я
13. Люба-Любонька
14. Выйду на улицу
15. Гори, гори, моя звезда
16. Две гитары за стеной
17. Владимирский централ
18. Дорогой длинною
19. Ехали цыгане
20. Мне бы в небо
21. Живет моя отрада
22. Из-за острова на стрежень
23. Белая береза
24. Калинка
25. Калитка
26. Улыбка
27. Клен ты мой опавший
28. Крылатые качели
29. Когда б имел златые горы
30. Постой, паровоз
31. Колечко
32. Коробейники
33. Песенка мамонтенка
34. Любо, братцы, любо
35. Миленький ты мой
36. Мой костер
37. Листья желтые
38. Москва златоглавая
39. Мурка
40. Город, которого нет
41. Мясоедовская
42. На Муромской дорожке
43. Бутылка вина
44. Напилася я пьяна
45. Не смотрите вы так
46. Электричка
47. Не уходи, побудь со мною
48. Ой, мороз, мороз
49. Ой, при лужку, при лужке
50. Зеленоглазое такси
51. Ой, то не вечер
52. Ой, ты Галю
53. Окрасился месяц багрянцем
54. Еще не поздно
55. Отцвели хризантемы
56. Очи черные
57. По диким степям Забайкалья
58. Если б я был султан
59. По Дону гуляет
60. Поспели вишни
61. Прекрасное далеко
62. Раскинулось море широко
63. Розпрягайте хлопщ коней
64. Остров невезения
65. С ярмарки ехал ухарь-купец
66. Саратовские частушки
67. Песенка мушкетеров
68. Светит месяц
69. Семь сорок
70. Соловей
71. Мой номер 245
72. Степь да степь кругом
73. Таганка
74. Если с другом вышел в путь
75. Темно-вишневая шаль
76. Ти ж мене пщманула
77. А я все летала
78. Тонкая рябина
79. У церкви стояла карета
80. Снег кружится
81. Утро туманное
82. Хас-Булат удалой
83. Позови меня с собой
84. Цыганочка
85. Чё те надо
86. Облака
87. Черный ворон
88. Шумел камыш
89. Нас извлекут из-под обломков
90. Я Вас любил
91. Я встретил Вас
92. Я ехала домой, душа была полна
93. Колыбельная медведицы
94. Я милого узнаю по походке
95. Бублички
96. Маленькой ёлочке холодно зимой
97. Спи, моя радость, усни
98. Лесной олень
99. Яблочко
100. Так будьте здоровы
Качество: DVD5
Формат: DVD video
Видео кодек: MPEG Video
Аудио кодек: AC3
Видео: PAL 4:3 (352x288) CBR
Аудио: Russian (MPEG1, 2 ch), 224 kb/s
Title:
Size: 4.36 Gb ( 4 574 094 KBytes ) - DVD-5
Enabled regions: 1, 2, 3, 4, 5, 6, 8

VTS_01 :
Play Length: 05:14:41+00:10:27
Video: PAL 4:3 (352x288) CBR
Audio:
Russian (MPEG1, 2 ch)

Menu Video:
PAL 4:3 (720x576) VBR
Menu Audio:
Not specified (Dolby AC3, 6 ch)
Menu Subtitles:
Not specified
Menu English Language Unit :
Root Menu
General
Complete name : C:\Users\Desktop\KARAOKE\SHINCO-2 (100 песен)\VIDEO_TS\VTS_01_1.VOB
Format : MPEG-PS
File size : 1 024 MiB
Duration : 3 min
Overall bit rate : 46.3 Mb/s
Writing library : encoded by TMPGEnc (ver. 2.513.53.162)

Video
ID : 224 (0xE0)
Format : MPEG Video
Format version : Version 1
Format settings, BVOP : Yes
Format settings, Matrix : Custom
Format settings, GOP : Variable
Duration : 3 min
Bit rate : 45.2 Mb/s
Maximum bit rate : 1 600 kb/s
Width : 352 pixels
Height : 288 pixels
Display aspect ratio : 4:3
Frame rate : 25.000 FPS
Standard : PAL
Color space : YUV
Chroma subsampling : 4:2:0
Bit depth : 8 bits
Scan type : Progressive
Compression mode : Lossy
Bits/(Pixel*Frame) : 17.828
Time code of first frame : 00:00:00:00
Time code source : Group of pictures header
GOP, Open/Closed : Open
GOP, Open/Closed of first f : Closed
Stream size : 999 MiB (98%)
Writing library : TMPGEnc 2.513.53.162

Audio
ID : 192 (0xC0)
Format : MPEG Audio
Format version : Version 1
Format profile : Layer 2
Duration : 3 min
Bit rate mode : Constant
Bit rate : 224 kb/s
Channel(s) : 2 channels
Sampling rate : 48.0 kHz
Compression mode : Lossy
Stream size : 4.95 MiB (0%)

Menu
CRC32: B49F478E
MD5: 142436A089508AD916FA207389ED8E2D
SHA-1: 6E7EBAC3BEA9342D7FAA488F38690142DBD38E04

pb.wtf



Скачать Сборник песен на любой вкус через торрент https://pic1.kartinco.top/images/10/nmals.jpg Скачать, смотреть онлайн Сборник песен на любой вкус [2004, Поп, шансон, 2xDVD5] бесплантно в хорошем качестве Описание: Сборник песен на любой вкус!Оригинальные диски идущие с плеером (SHINCO) Зачем топтать мою любовь Рюмка водки на столе ... 10 10 6
Info! Золотая раздача, скачанное не засчитывается.
Торрент: Зарегистрирован [2016-08-24 10:04] · скачан: 41 раз
Статус: √ проверено
Размер: 8.58 GB
Как cкачать? Как скачать Сборник песен на любой вкус через торрент | UTorrent

28-11-2019 20:33  

Отключить всю рекламу на сайте

    Дорогой пользователь! Огромная просьба, поблагодарите релизера, оцените раздачу и оставьте свои комментарий, если Вы скачали Сборник песен на любой вкус через торрент бесплатно!
    Комментировать посты могут только пользователи прошедшие не сложную регистрацию
    Показать сообщения:    

    Сборник песен на любой вкус через торрент
    Скачать бесплатно Сборник песен на любой вкус
    Сборник песен на любой вкус скачать торрент
    Сборник песен на любой вкус смотреть онлайн
    Cкачать фильм Сборник песен на любой вкус бесплатно
    Сборник песен на любой вкус скачать торрент в хорошем качестве
    Сборник песен на любой вкус смотреть онлайн бесплатно в хорошем качестве


    Вы не можете начинать темы
    Вы не можете отвечать на сообщения
    Вы не можете редактировать свои сообщения
    Вы не можете удалять свои сообщения
    Вы не можете голосовать в опросах
    Вы не можете прикреплять файлы к сообщениям
    Вы можете скачивать файлы