Ссылка на приватное зеркало нашего сайта всего за 1$. Внимание количество ограничено!!!

2 сезон

iTunes

1 сезон

1

iTunes

iTunes

iTunes

1 сезон

RePack

30

ИГРА 18+

pack

ВАЖНО

!!Акция!!

Alien_RageХит недели

RePack

MK11
pack

Забери бонус

RePack

jed

!!Акция!!

Alien_Rage

RePack

fifa19

RePack

Assassins Creed: Odyssey

RePack

NEED FOR SPEED™ PAYBACK

4 сезон

9 сезон

Бесстыжие 9 сезон

Все сериалы

все сериалы на PB.wtf

RePack

FAR CRY 5
  

Репортерша / Whiskey Tango Foxtrot (Гленн Фикарра, Джон Рекуа) [2016 г., Драма, комедия, военный, BDRip (720p), Дубляж Лицензия Blu-Ray CEE] pb.wtf

Репортерша через торрент pb.wtf

Размер: 5.5 GB | Добавлен: 4 года 2 мес. назад | Торрент скачан:53 раза
Скачать  

24-08-2016 13:43 Репортерша Скачать торрент  

Репортерша / Whiskey Tango Foxtrot
Год выпуска: 2016
Страна: США
Жанр: Драма, комедия, военный
Продолжительность: 01:51:48
Перевод: Дубляж Лицензия Blu-Ray CEE +Оригинал
Субтитры: Русские, английские

Режиссер: Гленн Фикарра, Джон Рекуа

В ролях: Тина Фей, Марго Робби, Мартин Фриман, Альфред Молина, Кристофер Эбботт, Билли Боб Торнтон, Николас Браун, Стивен Пикок, Шейла Ванд, Эван Йоникит

Описание: Фильм расскажет о деятельности журналистки в качестве репортёра в Афганистане и Пакистане, после прибытия туда в 2002 году.

Качество: BDRip (720p)
Формат: MKV
Видео кодек: AVC
Аудио кодек: AC3-DTS
Видео: MPEG-4 AVC, (1280x720),4900 Кбит/с, 23.976 кадра/сек
Аудио#1: AC3, 6 ch,640 kbps (Rus) 48.0 KHz Дублированный (Лицензия) Blu-Ray CEE
Аудио#2: DTS, 6 ch,1509 kbps (Eng) 48.0 KHz Оригинал
скриншот   скриншот   скриншот  

Video
ID : 1
Format : AVC
Format/Info : Advanced Video Codec
Format profile : High@L4.1
Format settings, CABAC : Yes
Format settings, ReFrames : 9 frames
Codec ID : V_MPEG4/ISO/AVC
Duration : 1 h 51 min
Bit rate : 4 900 kb/s
Width : 1 280 pixels
Height : 720 pixels
Display aspect ratio : 16:9
Frame rate mode : Constant
Frame rate : 23.976 (24000/1001) FPS
Color space : YUV
Chroma subsampling : 4:2:0
Bit depth : 8 bits
Scan type : Progressive
Bits/(Pixel*Frame) : 0.222
Stream size : 3.82 GiB (69%)
Language : English
Default : Yes
Forced : No

Audio #1
ID : 2
Format : AC-3
Format/Info : Audio Coding 3
Mode extension : CM (complete main)
Format settings, Endianness : Big
Codec ID : A_AC3
Duration : 1 h 51 min
Bit rate mode : Constant
Bit rate : 640 kb/s
Channel(s) : 6 channels
Channel positions : Front: L C R, Side: L R, LFE
Sampling rate : 48.0 kHz
Frame rate : 31.250 FPS (1536 spf)
Compression mode : Lossy
Stream size : 512 MiB (9%)
Title : DUB [Blu-Ray CEE]
Language : Russian
Default : Yes
Forced : No

Audio #2
ID : 3
Format : DTS
Format/Info : Digital Theater Systems
Mode : 16
Format settings, Endianness : Big
Codec ID : A_DTS
Duration : 1 h 51 min
Bit rate mode : Constant
Bit rate : 1 509 kb/s
Channel(s) : 6 channels
Channel positions : Front: L C R, Side: L R, LFE
Sampling rate : 48.0 kHz
Frame rate : 93.750 FPS (512 spf)
Bit depth : 24 bits
Compression mode : Lossy
Stream size : 1.18 GiB (21%)
Title : Original
Language : English
Default : No
Forced : No

Text #1
ID : 4
Format : UTF-8
Codec ID : S_TEXT/UTF8
Codec ID/Info : UTF-8 Plain Text
Duration : 1 h 45 min
Bit rate : 1 b/s
Count of elements : 33
Stream size : 1.29 KiB (0%)
Title : Forced
Language : Russian
Default : Yes
Forced : No

Text #2
ID : 5
Format : UTF-8
Codec ID : S_TEXT/UTF8
Codec ID/Info : UTF-8 Plain Text
Duration : 1 h 45 min
Bit rate : 104 b/s
Count of elements : 1595
Stream size : 81.2 KiB (0%)
Title : Full
Language : Russian
Default : No
Forced : No

Text #3
ID : 6
Format : UTF-8
Codec ID : S_TEXT/UTF8
Codec ID/Info : UTF-8 Plain Text
Duration : 1 h 43 min
Bit rate : 67 b/s
Count of elements : 1492
Stream size : 51.1 KiB (0%)
Title : Full
Language : English
Default : No
Forced : No

Text #4
ID : 7
Format : UTF-8
Codec ID : S_TEXT/UTF8
Codec ID/Info : UTF-8 Plain Text
Duration : 1 h 44 min
Bit rate : 75 b/s
Count of elements : 1859
Stream size : 57.8 KiB (0%)
Title : SDH
Language : English
Default : No
Forced : No

pb.wtf



Скачать Репортерша через торрент http://pic1.kartinco.top/images/10/lps5h.jpg Скачать фильм Репортерша через торрент бесплантно в хорошем качестве Описание: Фильм расскажет о деятельности журналистки в качестве репортёра в Афганистане и Пакистане, после прибытия туда в 2002 ... 10 10 4
Торрент: Зарегистрирован [2016-08-24 13:43] · скачан: 53 раз
Статус: # сомнительно
Размер: 5.5 GB
Как cкачать? Как скачать Репортерша через торрент | qTorrent

% Раздел Тема Автор DL S | L
Фильмы (Blu-ray, BD-Remux, HDDVD) [ 27.52 GB ] Репортерша / Whiskey Tango Foxtrot [2016 военный BD Remux Blu-Ray CEE] Бумер Скачать
1 | 0

28-11-2019 20:33  

Отключить всю рекламу на сайте

24-08-2016 14:20 Репортерша Скачать торрент  

5000 тысяч очков золото
поже будет блюрей ремуксpb.wtf



24-08-2016 14:24 Репортерша Скачать торрент  

Whiskey Tango Foxtrot - What The Fack?)) авторы фильма те еще тролли))pb.wtf



25-08-2016 04:21 Репортерша Скачать торрент  

tamburetko, это кто переводил и занимался прокатом)pb.wtf



    Дорогой пользователь! Огромная просьба, поблагодарите релизера, оцените раздачу и оставьте свои комментарий, если Вы скачали Репортерша через торрент бесплатно! Внесите свою лепту в развитие PiratBit!
    Комментировать посты могут только пользователи прошедшие не сложную регистрацию
    Показать сообщения:    

    Репортерша через торрент
    Скачать бесплатно Репортерша
    Репортерша скачать торрент
    Репортерша смотреть онлайн
    Cкачать фильм Репортерша бесплатно
    Репортерша скачать торрент в хорошем качестве
    Репортерша смотреть онлайн бесплатно в хорошем качестве


    Вы не можете начинать темы
    Вы не можете отвечать на сообщения
    Вы не можете редактировать свои сообщения
    Вы не можете удалять свои сообщения
    Вы не можете голосовать в опросах
    Вы не можете прикреплять файлы к сообщениям
    Вы можете скачивать файлы