Ссылка на приватное зеркало всего за 1$. Внимание количество ограничено!!!

iTunes

iTunes

iTunes

1

iTunes

iTunes

iTunes

iTunes

iTunes

30
pack

Новость дня

ВАЖНО

!!Акция!!

Alien_RageХит недели

RePack

Resident Evil 21

ИГРА 18+

pack

RePack

jed

!!Акция!!

Alien_Rage

RePack

fifa19

RePack

Assassins Creed: Odyssey

RePack

NEED FOR SPEED™ PAYBACK

4 сезон

9 сезон

Бесстыжие 9 сезон

Все сериалы

все сериалы на PB.wtf

RePack

FAR CRY 5
  

Сибирский траффик (Сергей Грозных) [2015, Боевик, криминал, WEB-DLRip by _Один_777] pb.wtf

Сибирский траффик через торрент pb.wtf

Размер: 750 MB | Добавлен: 3 года 9 мес. назад | Торрент скачан:185 раз
Скачать  

24-08-2016 18:22 Сибирский траффик Скачать торрент  

Сибирский траффик

Жанр: Боевик, криминал
Год выпуска: 2015
Продолжительность: 01:29:18

Режиссёр: Сергей Грозных

В ролях: Николай Устинов, Анна Захарова, Олег Захаров, Елена Бессмертная, Екатерина Спирина, Михаил Попов, Равиль Валиев, Евгений Писанков...

Описание: Офицер в отставке Руслан Бероев выходит на пенсию, и казалось, что суровые будни закончены. Один за другим начинают пропадать сотрудники спецотдела и бывший сослуживец просит Руслана о помощи в раскрытии преступлений. Бероев не ожидал, что эта помощь обернётся для него войной, войной за себя, за свою семью и свою страну.

Сэмпл: http://sendfile.su/1259606


Качество видео: WEB-DLRip
Формат видео: AVI

Видео: 640x272 (2.35:1), 25 fps, XviD build 73 ~1036 kbps avg, 0.24 bit/pixel
Аудио: 48 kHz, MPEG Layer 3, 2 ch, ~128.00 kbps avg
Общее
Полное имя : D:\Sibirskij.traffik.2015.WEB-DLRip.740.[Один 777].avi
Формат : AVI
Формат/Информация : Audio Video Interleave
Размер файла : 750 Мбайт
Продолжительность : 1 ч. 29 м.
Общий поток : 1174 Кбит/сек
Программа кодирования : VirtualDubMod 1.5.10.3 | www.virtualdub-fr.org || (build 2550/release)
Библиотека кодирования : VirtualDubMod build 2550/release

Видео
Идентификатор : 0
Формат : MPEG-4 Visual
Профиль формата : Advanced Simple@L5
Параметр BVOP формата : 2
Параметр QPel формата : Нет
Параметр GMC формата : Без точки перехода
Параметр матрицы формата : Default (H.263)
Идентификатор кодека : XVID
Идентификатор кодека/Подсказка : XviD
Продолжительность : 1 ч. 29 м.
Битрейт : 1037 Кбит/сек
Ширина : 640 пикселей
Высота : 272 пикселя
Соотношение сторон : 2,35:1
Частота кадров : 25,000 кадров/сек
Цветовое пространство : YUV
Субдискретизация насыщенности : 4:2:0
Битовая глубина : 8 бит
Тип развёртки : Прогрессивная
Метод сжатия : С потерями
Бит/(Пиксели*Кадры) : 0.238
Размер потока : 662 Мбайт (88%)
Библиотека кодирования : XviD 73

Аудио
Идентификатор : 1
Формат : MPEG Audio
Версия формата : Version 1
Профиль формата : Layer 3
Идентификатор кодека : 55
Идентификатор кодека/Подсказка : MP3
Продолжительность : 1 ч. 29 м.
Вид битрейта : Постоянный
Битрейт : 128 Кбит/сек
Каналы : 2 канала
Частота : 48,0 КГц
Метод сжатия : С потерями
Размер потока : 81,8 Мбайт (11%)
Выравнивание : Соединение по промежуткам
Продолжительность промежутка : 40 мс. (1,00 видеокадр)
Время предзагрузки промежутка : 504 мс.
Библиотека кодирования : LAME3.99r
Настройки программы : -m s -V 4 -q 2 -lowpass 17 -b 128
pb.wtf



Скачать Сибирский траффик через торрент http://s45.radikal.ru/i108/1608/fe/6c0933d27b2b.jpg Скачать фильм Сибирский траффик через торрент бесплантно в хорошем качестве Описание: Офицер в отставке Руслан Бероев выходит на пенсию, и казалось, что суровые будни закончены. Один за другим начинают пропадать ... 7.6 10 19
Info! Золотая раздача, скачанное не засчитывается.
Торрент: Зарегистрирован [2016-08-24 18:22] · скачан: 185 раз
Статус: √ проверено
Размер: 750 MB
Как cкачать? Как скачать Сибирский траффик через торрент | qTorrent

% Раздел Тема Автор DL S | L
Наши новые фильмы 2015 [ 1.22 GB ] Сибирский траффик [2015 WEB-DLRip-AVC] smaster Скачать
1 | 0
T Релизы по Парсеру [Игры, Сериалы и Фильмы и другое...] [ 1.37 GB ] Сибирский траффик WEB-DLRip smaster Скачать
1 | 0


Последний раз редактировалось: Один 777 (2016-08-25 10:36), всего редактировалось 3 раз(а)

28-11-2019 20:33  

Отключить всю рекламу на сайте

24-08-2016 21:11 Сибирский траффик Скачать торрент  

очередной трэш(pb.wtf



24-08-2016 22:15 Сибирский траффик Скачать торрент  

дешевка не советуюpb.wtf



25-08-2016 04:08 Сибирский траффик Скачать торрент  

Убогий фильмpb.wtf



25-08-2016 06:33 Сибирский траффик Скачать торрент  

По названию уже понятно что треш аля серяльчики на нтвpb.wtf



    Дорогой пользователь! Огромная просьба, поблагодарите релизера, оцените раздачу и оставьте свои комментарий, если Вы скачали Сибирский траффик через торрент бесплатно! Внесите свою лепту в развитие PiratBit!
    Комментировать посты могут только пользователи прошедшие не сложную регистрацию
    Показать сообщения:    

    Сибирский траффик через торрент
    Скачать бесплатно Сибирский траффик
    Сибирский траффик скачать торрент
    Сибирский траффик смотреть онлайн
    Cкачать фильм Сибирский траффик бесплатно
    Сибирский траффик скачать торрент в хорошем качестве
    Сибирский траффик смотреть онлайн бесплатно в хорошем качестве


    Вы не можете начинать темы
    Вы не можете отвечать на сообщения
    Вы не можете редактировать свои сообщения
    Вы не можете удалять свои сообщения
    Вы не можете голосовать в опросах
    Вы не можете прикреплять файлы к сообщениям
    Вы можете скачивать файлы