Ссылка на приватное зеркало всего за 1$. Внимание количество ограничено!!!

iTunes

iTunes

iTunes

1

iTunes

iTunes

iTunes

iTunes

iTunes

30
pack

Новость дня

ВАЖНО

!!Акция!!

Alien_RageХит недели

RePack

Resident Evil 21

ИГРА 18+

pack

RePack

jed

!!Акция!!

Alien_Rage

RePack

fifa19

RePack

Assassins Creed: Odyssey

RePack

NEED FOR SPEED™ PAYBACK

4 сезон

9 сезон

Бесстыжие 9 сезон

Все сериалы

все сериалы на PB.wtf

RePack

FAR CRY 5
  

В лесу / Into the Forest (Патриция Розема) [2015 г., фантастика, драма, WEB-DLRip, Любительский Многоголосый СПД] pb.wtf

В лесу через торрент pb.wtf

Размер: 1.37 GB | Добавлен: 3 года 9 мес. назад | Торрент скачан:462 раза
Скачать  

24-08-2016 18:48 В лесу Скачать торрент  

В лесу / Into the ForestГод выпуска: 2015
Страна: Канада
Жанр: фантастика, драма
Продолжительность: 01:41:08
Субтитры: Отсутствуют
Перевод:Любительский Многоголосый СПД
Режиссер: Патриция Розема
Продюссер: Фрайзер Эш, Келли Буш, Джейсон Клот
Сценарий: Патриция Розема, Джин Хегланд

Премьера в мире: 12 сентября 2015

лицам до 17 лет обязательно присутствие взрослого
http://www.imdb.com/title/tt2625810/



В ролях: Эллен Пейдж, Эван Рэйчел Вуд, Макс Мингелла, Каллум Кит Ренни, Майкл Эклунд, Венди Крюсон

Описание: Недалёкое будущее. Сёстры Нэлл и Эва живут вместе с отцом в умном доме посреди леса. Жизнь людей очень сильно зависит от электричества, поэтому когда случается повсеместное отключение электроэнергии, жизнь человечества в корне меняется. Сначала семья едет в город за продуктами, но потом решает держаться подальше от людей. Им придётся научиться выживать без преимуществ цивилизации.

Качество: WEB-DLRip
Формат: AVI
Видео кодек: XviD
Аудио кодек: AC3
Видео: XviD 1540 Кбит/с,(1.85:1) 720x384,23.976 fps
Аудио#1: AC3, 2 ch, 384 Кбит/с,48.0 KHz
Присутствует не значительная реклама!!!
скриншот  скриншот  скриншот  скриншот  скриншот  скриншот  

Код:

General
Complete name                            : C:\Users\ghdf\Desktop\Into.the.Forest.2015.avi
Format                                   : AVI
Format/Info                              : Audio Video Interleave
File size                                : 1.37 GiB
Duration                                 : 1h 41mn
Overall bit rate                         : 1 934 Kbps
Writing application                      : VirtualDubMod 1.5.10.2 (build 2540/release)
Writing library                          : VirtualDubMod build 2540/release

Video
ID                                       : 0
Format                                   : MPEG-4 Visual
Format profile                           : Advanced Simple@L5
Format settings, BVOP                    : 2
Format settings, QPel                    : No
Format settings, GMC                     : No warppoints
Format settings, Matrix                  : Custom
Codec ID                                 : XVID
Codec ID/Hint                            : XviD
Duration                                 : 1h 41mn
Bit rate                                 : 1 541 Kbps
Width                                    : 720 pixels
Height                                   : 384 pixels
Display aspect ratio                     : 1.85:1
Frame rate                               : 23.976 fps
Color space                              : YUV
Chroma subsampling                       : 4:2:0
Bit depth                                : 8 bits
Scan type                                : Progressive
Compression mode                         : Lossy
Bits/(Pixel*Frame)                       : 0.232
Stream size                              : 1.09 GiB (80%)
Writing library                          : XviD 1.2.1 (UTC 2008-12-04)

Audio
ID                                       : 1
Format                                   : AC-3
Format/Info                              : Audio Coding 3
Mode extension                           : CM (complete main)
Format settings, Endianness              : Big
Codec ID                                 : 2000
Duration                                 : 1h 41mn
Bit rate mode                            : Constant
Bit rate                                 : 384 Kbps
Channel count                            : 2 channels
Channel positions                        : Front: L R
Sampling rate                            : 48.0 KHz
Bit depth                                : 16 bits
Compression mode                         : Lossy
Stream size                              : 278 MiB (20%)
Alignment                                : Split accross interleaves
Interleave, duration                     : 42 ms (1.00 video frame)
Interleave, preload duration             : 500 ms


pb.wtf



Скачать В лесу через торрент http://s41.radikal.ru/i094/1608/01/267d684146e4.png Скачать фильм В лесу через торрент бесплантно в хорошем качестве Описание: Недалёкое будущее. Сёстры Нэлл и Эва живут вместе с отцом в умном доме посреди леса. Жизнь людей очень сильно зависит от ... 8.3 10 14
Торрент: Зарегистрирован [2016-08-24 18:48] · скачан: 462 раз
Статус: T временная
Размер: 1.37 GB
Как cкачать? Как скачать В лесу через торрент | qTorrent

% Раздел Тема Автор DL S | L
Фильмы 2015 [DVDrip, WEB-DLRip, HDrip] [ 746 MB ] В изоляции / В лесу / Into the Forest [2015 HDRip] MVO bober100 Скачать
16 | 0
Фильмы [HD 720p, 1080p] (Хороший звук DUB, MVO) [ 11.62 GB ] В изоляции / В лесу / Into the Forest [2015 BDRip 1080p] MVO bober100 Скачать
23 | 1
Фильмы 2015 [DVDrip, WEB-DLRip, HDrip] [ 1.42 GB ] В изоляции / В лесу / Into the Forest [2015 BDRip] MVO Twi7ter Скачать
81 | 1
Фильмы 2015 [DVDrip, WEB-DLRip, HDrip] [ 1.46 GB ] В изоляции / В лесу / Into the Forest [2015 BDRip] MVO bober100 Скачать
15 | 1
Фильмы [HD 720p, 1080p] (Хороший звук DUB, MVO) [ 5.73 GB ] В изоляции / В лесу / Into the Forest [2015 BDRip 720p] MVO bober100 Скачать
23 | 0
T Фильмы без перевода [ 1.38 GB ] В лесу / Into the Forest [2015 WEB-DLRip Перевод отсутствует Оригинал] makarevich Скачать
1 | 0

28-11-2019 20:33  

Отключить всю рекламу на сайте

21-05-2020 08:50 В лесу Скачать торрент  

Топик был перенесен из форума Фильмы 2015 [DVDrip, WEB-DLRip, HDrip] в форум Для поглощённых раздач

Причина переноса: В изоляции / В лесу / Into the Forest
bober100pb.wtf



    Дорогой пользователь! Огромная просьба, поблагодарите релизера, оцените раздачу и оставьте свои комментарий, если Вы скачали В лесу через торрент бесплатно! Внесите свою лепту в развитие PiratBit!
    Комментировать посты могут только пользователи прошедшие не сложную регистрацию
    Показать сообщения:    

    В лесу через торрент
    Скачать бесплатно В лесу
    В лесу скачать торрент
    В лесу смотреть онлайн
    Cкачать фильм В лесу бесплатно
    В лесу скачать торрент в хорошем качестве
    В лесу смотреть онлайн бесплатно в хорошем качестве


    Вы не можете начинать темы
    Вы не можете отвечать на сообщения
    Вы не можете редактировать свои сообщения
    Вы не можете удалять свои сообщения
    Вы не можете голосовать в опросах
    Вы не можете прикреплять файлы к сообщениям
    Вы можете скачивать файлы