2 сезон

iTunes

MVO

1

2 сезон

iTunes

iTunes

1 сезон

RePack

30

Новинка

ВАЖНО

ИГРА 18+

pack

RePack

MK11
pack

Легкие деньги

RePack

jed

RePack

fifa19

RePack

RDR2

RePack

NEED FOR SPEED™ PAYBACK

4 сезон

9 сезон

Бесстыжие 9 сезон

Все сериалы

все сериалы на PB.wtf

RePack

FAR CRY 5

Anonymous, добрый вечер, мы не успеваем собрать деньги на оплату серверов за декабрь и январь, помогите нам пожалуйста в это трудное время. В качестве благодарности мы отключим Вам всю рекламу на сайте (укажите свой ник в строку Ваше имя)!

×
  
Magnet ссылка

Любовь или секс / The Bounceback (Брайан Пойсер) [2013 г., мелодрама, комедия, BDRip] MVO pb.wtf

Любовь или секс через торрент pb.wtf

Размер: 743 MB | Добавлен: 4 года 5 мес. назад | Торрент скачан:94 раза
Скачать  

25-08-2016 08:08 Любовь или секс Скачать торрент  

Любовь или секс / The Bounceback
Год выпуска: 2013
Страна: США
Жанр: мелодрама, комедия
Продолжительность: 01:30:33
Перевод: Профессиональный (многоголосый) [UMS Film]

Режиссер: Брайан Пойсер

Премьера в мире: 9 марта 2013



В ролях: Эшли Белл, Зак Креггер, Сара Пэкстон, Майкл Сталь-Дэвид, Эддисон Тимлин, Маршалл Оллман, Джастин Арнольд, Дебора Эбботт, Саманта Баньон, Гопал Бидари

Описание: Когда отчаявшийся Стэн летит в Остин на выходные в надежде «случайно» встретить свою бывшую девушку Кэти. Приехав, он узнает, что его лучшие друзья, Джефф и Кара, находятся на грани расставания. Но все еще можно исправить...

Качество: BDRip (THE_BOUNCEBACK_2013_REMUX_HDCLUB)
Формат: AVI
Видео кодек: XviD
Аудио кодек: MP3
Видео: XviD, 1010 Кбит/с, 688x384, 23.976 кадр/с
Аудио: MP3, 2 ch, 128 Кбит/с, 48 kHz
Релиз от: Koenig
Общее
Полное имя : The.Bounceback.2013.BDRip.avi
Формат : AVI
Формат/Информация : Audio Video Interleave
Размер файла : 743 Мбайт
Продолжительность : 1 ч. 30 м.
Общий поток : 1147 Кбит/сек
Программа кодирования : VirtualDubMod 1.5.10.2 (build 2540/release)
Библиотека кодирования : VirtualDubMod build 2540/release

Видео
Идентификатор : 0
Формат : MPEG-4 Visual
Профиль формата : Advanced Simple@L5
Параметр BVOP формата : 1
Параметр QPel формата : Нет
Параметр GMC формата : Без точки перехода
Параметр матрицы формата : Default (MPEG)
Идентификатор кодека : XVID
Идентификатор кодека/Подсказка : XviD
Продолжительность : 1 ч. 30 м.
Битрейт : 1010 Кбит/сек
Ширина : 688 пикселей
Высота : 384 пикселя
Соотношение сторон : 16:9
Частота кадров : 23,976 (23976/1000) кадра/сек
Цветовое пространство : YUV
Субдискретизация насыщенности : 4:2:0
Битовая глубина : 8 бит
Тип развёртки : Прогрессивная
Метод сжатия : С потерями
Бит/(Пиксели*Кадры) : 0.159
Размер потока : 654 Мбайт (88%)
Библиотека кодирования : XviD 1.2.0.dev47 (UTC 2006-11-01)

Аудио
Идентификатор : 1
Формат : MPEG Audio
Версия формата : Version 1
Профиль формата : Layer 3
Режим : Joint stereo
Расширение режима : MS Stereo
Идентификатор кодека : 55
Идентификатор кодека/Подсказка : MP3
Продолжительность : 1 ч. 30 м.
Вид битрейта : Постоянный
Битрейт : 128 Кбит/сек
Каналы : 2 канала
Частота : 48,0 КГц
Метод сжатия : С потерями
Размер потока : 82,9 Мбайт (11%)
Выравнивание : Соединение по промежуткам
Продолжительность промежутка : 42 мс. (1,00 видеокадр)
Время предзагрузки промежутка : 504 мс.
Библиотека кодирования : LAME3.99r
Настройки программы : -m j -V 4 -q 3 -lowpass 17 -b 128

pb.wtf



Скачать Любовь или секс через торрент https://pic1.kartinco.top/images/10/oxvvw.jpg Скачать фильм Любовь или секс через торрент бесплантно в хорошем качестве Описание: Когда отчаявшийся Стэн летит в Остин на выходные в надежде «случайно» встретить свою бывшую девушку Кэти. Приехав, он узнает, что ... 10 10 8
Торрент: Зарегистрирован [2016-08-25 08:08] · скачан: 94 раз
Статус: √ проверено
Размер: 743 MB
Как cкачать? Как скачать Любовь или секс через торрент | UTorrent

% Раздел Тема Автор DL S | L
Фильмы [HD 720p, 1080p] (Хороший звук DUB, MVO) [ 4.51 GB ] Любовь или секс / The Bounceback [2013 BDRip 720p by msltel] MVO msltel Скачать
1 | 0
Фильмы [HD 720p, 1080p] (Хороший звук DUB, MVO) [ 11.59 GB ] Любовь или секс / The Bounceback [2013 BDRip 1080p by msltel] MVO msltel Скачать
1 | 0
T Фильмы 2013 [DVDrip, WEB-DLRip, HDrip] [ 1.37 GB ] Любовь или секс / The Bounceback [2013 Мело HDRip] MVO Ворон Скачать
1 | 0

28-11-2019 20:33  

Отключить всю рекламу на сайте

25-08-2016 09:59 Любовь или секс Скачать торрент  

Как фильм?pb.wtf



27-08-2016 11:35 Любовь или секс Скачать торрент  

Постер какой-то......
То ли макароны..., то ли лобковые волоса...!?pb.wtf



    Дорогой пользователь! Огромная просьба, поблагодарите релизера, оцените раздачу и оставьте свои комментарий, если Вы скачали Любовь или секс через торрент бесплатно! Внесите свою лепту в развитие PiratBit!
    Комментировать посты могут только пользователи прошедшие не сложную регистрацию
    Показать сообщения:    

    Любовь или секс через торрент
    Скачать бесплатно Любовь или секс
    Любовь или секс скачать торрент
    Любовь или секс смотреть онлайн
    Cкачать фильм Любовь или секс бесплатно
    Любовь или секс скачать торрент в хорошем качестве
    Любовь или секс смотреть онлайн бесплатно в хорошем качестве


    Вы не можете начинать темы
    Вы не можете отвечать на сообщения
    Вы не можете редактировать свои сообщения
    Вы не можете удалять свои сообщения
    Вы не можете голосовать в опросах
    Вы не можете прикреплять файлы к сообщениям
    Вы можете скачивать файлы