Ссылка на приватное зеркало всего за 1$. Внимание количество ограничено!!!

iTunes

iTunes

iTunes

1

iTunes

iTunes

iTunes

iTunes

iTunes

30
pack

Новость дня

ВАЖНО

!!Акция!!

Alien_RageХит недели

RePack

Resident Evil 21

ИГРА 18+

pack

RePack

jed

!!Акция!!

Alien_Rage

RePack

fifa19

RePack

Assassins Creed: Odyssey

RePack

NEED FOR SPEED™ PAYBACK

4 сезон

9 сезон

Бесстыжие 9 сезон

Все сериалы

все сериалы на PB.wtf

RePack

FAR CRY 5
  

Пятница (Евгений Шелякин ) [2016, комедия, BDRip 720p [Лицензия] pb.wtf

Пятница через торрент pb.wtf

Размер: 3.99 GB | Добавлен: 3 года 8 мес. назад | Торрент скачан:229 раз
Скачать  

25-08-2016 14:57 Пятница Скачать торрент  

Пятница

Год выпуска: 2016
Страна: Россия
Жанр: комедия

Продолжительность: 01:26:54
Перевод: Оригинал [Лицензия]
Режиссер: Евгений Шелякин
В ролях: Данила Козловский (Бондарь), Сергей Бурунов (Игорь), Настасья Самбурская (Лара), Катерина Шпица (Вера), Павел Деревянко (Антонов), Кирилл Плетнёв (Макс), Евгения Брик (Лена), Антон Шагин (Виталий), Ян Цапник (Вадим Равильевич), Евгений Стычкин (Илья), Сергей Чирков (Егор), Аристарх Венес (Гоша)
Описание:
Что если азартный миллионер на одну ночь станет официантом, офисный лузер будет звездой самой яркой вечеринки, а двум «заклятым» друзьям придется искать кенгуру ночью в подмосковном лесу? У каждого своя пятница! Как она закончится для каждого, знает только утро субботы ;)
Рейтинг:

Качество: BDRip 720p
Формат: MKV
Видео: AVC, 1280x536 (2.40:1), 5060 kbps, 24 fps, 0,307 bpp
Аудио: русский / DTS / 5.1 / 48 kHz / 1509 kbps / 24 bit
Навигация по главам: есть

General
Unique ID
Complete name 5H1ca.2O16.BDRip.720p.mkv
Format : Matroska
Format version : Version 4 / Version 2
File size : 3.99 GiB
Duration : 1 h 26 min
Overall bit rate : 6 569 kb/s
Encoded date : UTC 2016-07-04 22:42:49
Writing application : mkvmerge v9.2.0 ('Photograph') 64bit
Writing library : libebml v1.3.3 + libmatroska v1.4.4

Video
ID : 1
Format : AVC
Format/Info : Advanced Video Codec
Format profile : High@L4.1
Format settings, CABAC : Yes
Format settings, ReFrames : 11 frames
Codec ID : V_MPEG4/ISO/AVC
Duration : 1 h 26 min
Bit rate : 5 060 kb/s
Width : 1 280 pixels
Height : 536 pixels
Display aspect ratio : 2.40:1
Frame rate mode : Constant
Frame rate : 24.000 FPS
Color space : YUV
Chroma subsampling : 4:2:0
Bit depth : 8 bits
Scan type : Progressive
Bits/(Pixel*Frame) : 0.307
Stream size : 3.07 GiB (77%)
Writing library : x264 core 148 r2638 7599210
Encoding settings : cabac=1 / ref=11 / deblock=1:-2:-2 / analyse=0x3:0x133 / me=umh / subme=11 / psy=1 / psy_rd=1.00:0.00 / mixed_ref=1 / me_range=48 / chroma_me=1 / trellis=2 / 8x8dct=1 / cqm=0 / deadzone=21,11 / fast_pskip=1 / chroma_qp_offset=-2 / threads=11 / lookahead_threads=2 / sliced_threads=0 / nr=0 / decimate=1 / interlaced=0 / bluray_compat=0 / constrained_intra=0 / bframes=11 / b_pyramid=2 / b_adapt=2 / b_bias=0 / direct=3 / weightb=1 / open_gop=0 / weightp=2 / keyint=240 / keyint_min=24 / scenecut=0 / intra_refresh=0 / rc=2pass / mbtree=0 / bitrate=5060 / ratetol=1.0 / qcomp=0.60 / qpmin=0 / qpmax=69 / qpstep=4 / cplxblur=20.0 / qblur=0.5 / ip_ratio=1.40 / pb_ratio=1.30 / aq=1:0.80
Default : Yes
Forced : No
Color range : Limited
Matrix coefficients : BT.709

Audio
ID : 2
Format : DTS
Format/Info : Digital Theater Systems
Mode : 16
Format settings, Endianness : Big
Codec ID : A_DTS
Duration : 1 h 26 min
Bit rate mode : Constant
Bit rate : 1 509 kb/s
Channel(s) : 6 channels
Channel positions : Front: L C R, Side: L R, LFE
Sampling rate : 48.0 kHz
Frame rate : 93.750 FPS (512 spf)
Bit depth : 24 bits
Compression mode : Lossy
Stream size : 938 MiB (23%)
Language : Russian
Default : Yes
Forced : No

Menu
00:00:00.000 : ru:
00:00:19.375 : ru:
00:10:15.166 : ru:
00:21:16.833 : ru:
00:31:42.125 : ru:
00:41:03.208 : ru:
00:51:13.041 : ru:
00:59:44.958 : ru:
01:07:29.083 : ru:
Скриншоты:
pb.wtf



Скачать Пятница через торрент http://i2.imageban.ru/out/2016/08/25/f4088b9a2c0da99d343c65e1ef3845e2.jpg Скачать фильм Пятница через торрент бесплантно в хорошем качестве Описание: Что если азартный миллионер на одну ночь станет официантом, офисный лузер будет звездой самой яркой вечеринки, а двум «заклятым» ... 8.7 10 7
Торрент: Зарегистрирован [2016-08-25 14:57] · скачан: 229 раз
Статус: √ проверено
Размер: 3.99 GB
Как cкачать? Как скачать Пятница через торрент | qTorrent

% Раздел Тема Автор DL S | L
Фильмы [HD 720p, 1080p] (Хороший звук DUB, MVO) [ 3.85 GB ] Слава богу сегодня пятница / Thank God It's Friday [1978 музыка BDRip 720p by msltel] MVO msltel Скачать
1 | 0
Фильмы (Blu-ray, BD-Remux, HDDVD) [ 21.82 GB ] Слава Богу сегодня пятница / Thank God It's Friday [1978 музыка BDRemux 1080p] [MVO] killermax2013 Скачать
1 | 0
Фильмы до 2000 г. [ 2.09 GB ] Слава богу сегодня пятница / Thank God It's Friday [1978 музыка BDRip-AVC by msltel] MVO msltel Скачать
1 | 0
Наши сериалы [ 2.77 GB ] Убийства по пятницам / Сезон: 2 / Серии: 1-4 из 4 [2019 WEBRip-AVC] aleksan55 Скачать
1 | 0
Наши сериалы [ 2.27 GB ] Убийства по пятницам / Сезон: 2 / Серии: 1-4 из 4 [2019 WEB-DLRip-AVC] bober100 Скачать
1 | 0
Наши сериалы [ 6.53 GB ] Убийства по пятницам / Сезон: 2 / Серии: 1-4 из 4 [2019 WEB-DL 1080p] bober100 Скачать
1 | 0
Наши сериалы [ 2.73 GB ] Убийства по пятницам / Сезон: 2 / Серии: 1-4 из 4 [2019 WEB-DLRip] bober100 Скачать
1 | 0

28-11-2019 20:33  

Отключить всю рекламу на сайте

    Дорогой пользователь! Огромная просьба, поблагодарите релизера, оцените раздачу и оставьте свои комментарий, если Вы скачали Пятница через торрент бесплатно! Внесите свою лепту в развитие PiratBit!
    Комментировать посты могут только пользователи прошедшие не сложную регистрацию
    Показать сообщения:    

    Пятница через торрент
    Скачать бесплатно Пятница
    Пятница скачать торрент
    Пятница смотреть онлайн
    Cкачать фильм Пятница бесплатно
    Пятница скачать торрент в хорошем качестве
    Пятница смотреть онлайн бесплатно в хорошем качестве


    Вы не можете начинать темы
    Вы не можете отвечать на сообщения
    Вы не можете редактировать свои сообщения
    Вы не можете удалять свои сообщения
    Вы не можете голосовать в опросах
    Вы не можете прикреплять файлы к сообщениям
    Вы можете скачивать файлы