2 сезон

iTunes

MVO

1

2 сезон

iTunes

iTunes

1 сезон

RePack

30

Новинка

ВАЖНО

ИГРА 18+

pack

RePack

MK11
pack

Легкие деньги

RePack

jed

RePack

fifa19

RePack

RDR2

RePack

NEED FOR SPEED™ PAYBACK

4 сезон

9 сезон

Бесстыжие 9 сезон

Все сериалы

все сериалы на PB.wtf

RePack

FAR CRY 5

Anonymous, доброй ночи, мы не успеваем собрать деньги на оплату серверов за декабрь и январь, помогите нам пожалуйста в это трудное время. В качестве благодарности мы отключим Вам всю рекламу на сайте (укажите свой ник в строку Ваше имя)!

×
  
Magnet ссылка

Анна Плетнёва - Сильная девочка. [2016 г., Pop, HDTVRip 1080p] pb.wtf

Анна Плетнёва - Сильная девочка. через торрент pb.wtf

Размер: 258 MB | Добавлен: 4 года 4 мес. назад | Торрент скачан:31 раз
Скачать  

25-08-2016 15:41 Анна Плетнёва - Сильная девочка. Скачать торрент  

Анна Плетнёва - Сильная девочка.
Год выпуска: 2016
Жанр: Pop
Продолжительность: 00:05:52
Качество:HDTVRip 1080p
Формат: MPEG4
Видео кодек: AVC
Аудио кодек:AAC
Видео: MPEG4 AVC, 1920x1080, 25,000 fps, 6010 kbps
Аудио#1: AAC 48,0 kHz, 2 ch, 128 kbps
Общее
Полное имя : Анна Плетнёва - Сильная девочка.mp4
Формат : MPEG-4
Профиль формата : Base Media / Version 2
Идентификатор кодека : mp42
Размер файла : 258 Мбайт
Продолжительность : 5 м. 52 с.
Режим общего битрейта : Переменный
Общий поток : 6143 Кбит/сек

Видео
Идентификатор : 1
Формат : AVC
Формат/Информация : Advanced Video Codec
Профиль формата : High@L4.0
Параметр CABAC формата : Да
Параметр ReFrames формата : 5 кадров
Идентификатор кодека : avc1
Идентификатор кодека/Информация : Advanced Video Coding
Продолжительность : 5 м. 52 с.
Продолжительность оригинала : 5 м. 52 с.
Вид битрейта : Переменный
Битрейт : 6010 Кбит/сек
Максимальный битрейт : 40,0 Мбит/сек
Ширина : 1920 пикселей
Высота : 1080 пикселей
Соотношение сторон : 16:9
Режим частоты кадров : Постоянный
Частота кадров : 25,000 кадров/сек
Цветовое пространство : YUV
Субдискретизация насыщенности : 4:2:0
Битовая глубина : 8 бит
Тип развёртки : Прогрессивная
Бит/(Пиксели*Кадры) : 0.116
Размер потока : 253 Мбайт (98%)
Размер потока оригинала : 253 Мбайт (98%)
Язык : English
mdhd_Duration : 352560

Аудио
Идентификатор : 2
Формат : AAC
Формат/Информация : Advanced Audio Codec
Профиль формата : LC
Идентификатор кодека : 40
Продолжительность : 5 м. 52 с.
Продолжительность оригинала : 5 м. 52 с.
Вид битрейта : Переменный
Битрейт : 128 Кбит/сек
Каналы : 2 канала
Расположение каналов : Front: L R
Частота : 48,0 КГц
Метод сжатия : С потерями
Размер потока : 5,38 Мбайт (2%)
Размер потока оригинала : 5,38 Мбайт (2%)
Язык : English
mdhd_Duration : 352597

исчичся скачать торрент

pb.wtf



Скачать Анна Плетнёва - Сильная девочка. через торрент http://funkyimg.com/i/2fSiN.jpg Скачать фильм Анна Плетнёва - Сильная девочка. [2016 г., Pop, HDTVRip 1080p]через торрент бесплантно в хорошем качестве Год выпуска: 2016Жанр: PopПродолжительность: ... 2.8 10 5
Торрент: Зарегистрирован [2016-08-25 15:41] · скачан: 31 раз
Статус: √ проверено
Размер: 258 MB
Как cкачать? Как скачать Анна Плетнёва - Сильная девочка. через торрент | UTorrent

% Раздел Тема Автор DL S | L
Отечественная Поп музыка (mp3) [ 175 MB ] Анна Плетнёва ''Винтаж'' - Сильная Девочка - 2018/ MP3/ tracks/ 320 kbps/ Pop sergej644 Скачать
1 | 0
Отечественная Поп музыка (mp3) [ 129 MB ] Анна Плетнёва - Сильная девочка 2018 / MP3 / 320 kbps / Поп bober100 Скачать
1 | 0

28-11-2019 20:33  

Отключить всю рекламу на сайте

    Дорогой пользователь! Огромная просьба, поблагодарите релизера, оцените раздачу и оставьте свои комментарий, если Вы скачали Анна Плетнёва - Сильная девочка. через торрент бесплатно! Внесите свою лепту в развитие PiratBit!
    Комментировать посты могут только пользователи прошедшие не сложную регистрацию
    Показать сообщения:    

    Анна Плетнёва - Сильная девочка. через торрент
    Скачать бесплатно Анна Плетнёва - Сильная девочка.
    Анна Плетнёва - Сильная девочка. скачать торрент
    Анна Плетнёва - Сильная девочка. смотреть онлайн
    Cкачать фильм Анна Плетнёва - Сильная девочка. бесплатно
    Анна Плетнёва - Сильная девочка. скачать торрент в хорошем качестве
    Анна Плетнёва - Сильная девочка. смотреть онлайн бесплатно в хорошем качестве


    Вы не можете начинать темы
    Вы не можете отвечать на сообщения
    Вы не можете редактировать свои сообщения
    Вы не можете удалять свои сообщения
    Вы не можете голосовать в опросах
    Вы не можете прикреплять файлы к сообщениям
    Вы можете скачивать файлы